The Kindaichi Case Files 1997 EP003 ENGSUB X265 [AI4K].MP4

Category:
Date:
2020-10-18 02:16 UTC
Submitter:
Anonymous
Seeders:
1
Information:
iq9999.top
Leechers:
1
File size:
1.9 GiB
Completed:
20
Info hash:
6f58c0599c5bfd39c40d832e5dc5b9d77b008a43
https://i.ibb.co/vdRs2my/The-Kindaichi-Case-Files-EP003-ENGSUB-4-K-X265-mp4-20201018-093804-958.jpg warning!!!!!!!!!! This is not native 4k!!!!!!!!! This is zoomed to 4k with AI!!!!!!!!!!!!!! Video ID : 1 Format : HEVC Format/Info : High Efficiency Video Coding Format profile : Main 10@L5.1@High Codec ID : hev1 Codec ID/Info : High Efficiency Video Coding Duration : 24 min 0 s Bit rate : 10.9 Mb/s Width : 3 840 pixels Height : 2 160 pixels Display aspect ratio : 16:9 Frame rate mode : Variable Frame rate : 29.970 (30000/1001) FPS Minimum frame rate : 29.412 FPS Maximum frame rate : 30.303 FPS Color space : YUV Chroma subsampling : 4:2:0 Bit depth : 10 bits Bits/(Pixel*Frame) : 0.044 Stream size : 1.83 GiB (99%) Menus : 3 Audio ID : 2 Format : AAC Format/Info : Advanced Audio Codec Format profile : LC Codec ID : mp4a-40-2 Duration : 24 min 1 s Bit rate mode : Constant Bit rate : 153 kb/s Channel(s) : 2 channels Channel positions : Front: L R Sampling rate : 44.1 kHz Frame rate : 43.066 FPS (1024 SPF) Compression mode : Lossy Stream size : 26.2 MiB (1%) Default : Yes Alternate group : 1 Menus : 3

File list

  • engsub
    • Important!!!!About update!!!!!!.txt (124 Bytes)
    • The Kindaichi Case Files EP003 ENGSUB 4K X265.mp4 (1.9 GiB)