[Mysteria] Saenai Heroine no Sodatekata | How to Raise a Boring Girlfriend S1+S2 (BD 1080p HEVC FLAC)

Category:
Date:
2020-10-13 15:28 UTC
Submitter:
Seeders:
6
Information:
Leechers:
3
File size:
19.3 GiB
Completed:
237
Info hash:
522f6283b0e533796a81892ed4e0df3de0f3ca51
![alt text](https://m.media-amazon.com/images/M/MV5BMzcwYzVjOGEtN2Q1Yy00MTRmLWE5YzYtMjA3YTczYThjOTAwXkEyXkFqcGdeQXVyMzgxODM4NjM@._V1_.jpg) **~ smh. Something went terribly wrong on my end for season 2. TS issues. This has been fixed. Should've listed what was done before, so people wouldn't assume everythings the same. For season one, some edits to the TS were made. For season two, some TS is redone, along with the OP/ED, since it wasn't consistent for the whole season.** **~ If you have any playback issues, use [mpv.](https://mpv.io/) OP2 uses heavy kfx and doesn't render properly in some players. Please don't use VLC. It's utter trash as expected. It ceases to render, and has laggy playback. It's an abomination.** **Description:** *Title: Saenai Heroine no Sodatekata (How to Raise a Boring Girlfriend) *Original Source: **Beatrice-Raws: [Season 1,](https://nyaa.si/view/1288481) [Season 2](https://nyaa.si/view/1288482)** *Video Format: x265 HEVC 10bit mkv *Audio Codec: Japanese 2.0 (FLAC-16) *Subtitle Source: **FFF & Sumire** *Duration: 24 minutes per episode *Subtitle: English *Resolution/Quality: 1920x1080 or 1080p HD *Genre: School, Comedy, Romance *Age Rating: PG-13 **Media Info:** ``` General Unique ID : 232794778767826202561044850047881946905 (0xAF22A4BE8D5D0A1409BBCF54128DA719) Complete name : C:\Users\Mysteria\Downloads\[Mysteria] Saenai Heroine no Sodatekata S1+S2 (BD 1080 HEVC FLAC)\Season 1\[Mysteria] Saenai Heroine no Sodatekata - S01E00 (BD 1080p HEVC FLAC) [9C9BF852].mkv Format : Matroska Format version : Version 4 File size : 997 MiB Duration : 22 min 53 s Overall bit rate mode : Variable Overall bit rate : 6 090 kb/s Movie name : [Mysteria] Saenai Heroine no Sodatekata - S01E00 (BD 1080p HEVC FLAC) Encoded date : UTC 2020-10-10 19:15:37 Writing application : mkvmerge v51.0.0 ('I Wish') 64-bit Writing library : libebml v1.4.0 + libmatroska v1.6.2 Attachments : Flowers St.ttf / FOT-HummingStd-Accel-B.ttf / FOT-HummingStd-L.ttf / KGRayofSunshine.ttf / ShannonStd.ttf / CTMercuriusStd-Medium.otf / eraserdust.ttf / KozMinPro-Medium.ttf / ShannonStd-Bold-EienStinx.ttf / ShannonStd-Bold-EienStinxItalic.ttf / ShannonStd-Bold.otf / ShannonStd-Oblique.otf Video ID : 1 Format : HEVC Format/Info : High Efficiency Video Coding Format profile : Main 10@L4@Main Codec ID : V_MPEGH/ISO/HEVC Duration : 22 min 53 s Bit rate : 5 447 kb/s Width : 1 920 pixels Height : 1 080 pixels Display aspect ratio : 16:9 Frame rate mode : Constant Frame rate : 23.976 (24000/1001) FPS Color space : YUV Chroma subsampling : 4:2:0 Bit depth : 10 bits Bits/(Pixel*Frame) : 0.110 Stream size : 892 MiB (89%) Title : BDrip by Jensen Writing library : x265 3.4+26-ga82c6c7a7:[Windows][MSVC 1927][64 bit] 10bit Encoding settings : cpuid=1049583 / frame-threads=16 / numa-pools=24,24 / wpp / pmode / pme / no-psnr / no-ssim / log-level=2 / csv / csv-log-level=0 / input-csp=1 / input-res=1920x1080 / interlace=0 / total-frames=0 / level-idc=0 / high-tier=1 / uhd-bd=0 / ref=4 / no-allow-non-conformance / no-repeat-headers / annexb / no-aud / no-hrd / info / hash=0 / no-temporal-layers / open-gop / min-keyint=23 / keyint=240 / gop-lookahead=0 / bframes=8 / b-adapt=2 / b-pyramid / bframe-bias=0 / rc-lookahead=20 / lookahead-slices=6 / scenecut=40 / hist-scenecut=0 / radl=0 / no-splice / no-intra-refresh / ctu=64 / min-cu-size=8 / no-rect / no-amp / max-tu-size=32 / tu-inter-depth=2 / tu-intra-depth=2 / limit-tu=0 / rdoq-level=2 / dynamic-rd=0.00 / no-ssim-rd / signhide / no-tskip / nr-intra=0 / nr-inter=0 / no-constrained-intra / no-strong-intra-smoothing / max-merge=5 / limit-refs=1 / no-limit-modes / me=3 / subme=7 / merange=57 / temporal-mvp / no-frame-dup / no-hme / weightp / weightb / analyze-src-pics / deblock=1:-1 / no-sao / no-sao-non-deblock / rd=5 / selective-sao=0 / no-early-skip / rskip / no-fast-intra / no-tskip-fast / no-cu-lossless / b-intra / no-splitrd-skip / rdpenalty=0 / psy-rd=2.00 / psy-rdoq=2.00 / no-rd-refine / no-lossless / cbqpoffs=-2 / crqpoffs=-2 / rc=crf / crf=16.0 / qcomp=0.72 / qpstep=4 / stats-write=0 / stats-read=0 / ipratio=1.40 / pbratio=1.30 / aq-mode=3 / aq-strength=1.02 / no-cutree / zone-count=0 / no-strict-cbr / qg-size=32 / no-rc-grain / qpmax=69 / qpmin=0 / no-const-vbv / sar=0 / overscan=0 / videoformat=5 / range=0 / colorprim=1 / transfer=1 / colormatrix=1 / chromaloc=0 / display-window=0 / cll=0,0 / min-luma=0 / max-luma=1023 / log2-max-poc-lsb=8 / vui-timing-info / vui-hrd-info / slices=1 / no-opt-qp-pps / no-opt-ref-list-length-pps / no-multi-pass-opt-rps / scenecut-bias=0.05 / hist-threshold=0.03 / no-opt-cu-delta-qp / no-aq-motion / no-hdr10 / no-hdr10-opt / no-dhdr10-opt / no-idr-recovery-sei / analysis-reuse-level=0 / analysis-save-reuse-level=0 / analysis-load-reuse-level=0 / scale-factor=0 / refine-intra=4 / refine-inter=0 / refine-mv=3 / refine-ctu-distortion=0 / no-limit-sao / ctu-info=0 / no-lowpass-dct / refine-analysis-type=0 / copy-pic=1 / max-ausize-factor=1.0 / dynamic-refine / no-single-sei / no-hevc-aq / no-svt / no-field / qp-adaptation-range=2.00 / no-scenecut-aware-qpconformance-window-offsets / right=0 / bottom=0 / decoder-max-rate=0 / no-vbv-live-multi-pass Language : Japanese Default : Yes Forced : No Color range : Limited Color primaries : BT.709 Transfer characteristics : BT.709 Matrix coefficients : BT.709 Audio ID : 2 Format : FLAC Format/Info : Free Lossless Audio Codec Codec ID : A_FLAC Duration : 22 min 53 s Bit rate mode : Variable Bit rate : 635 kb/s Channel(s) : 2 channels Channel layout : L R Sampling rate : 48.0 kHz Frame rate : 10.417 FPS (4608 SPF) Bit depth : 16 bits Compression mode : Lossless Stream size : 104 MiB (10%) Title : Japanese 2.0 FLAC Writing library : libFLAC 1.3.3 (UTC 2019-08-04) Language : Japanese Default : Yes Forced : No Text ID : 3 Format : ASS Codec ID : S_TEXT/ASS Codec ID/Info : Advanced Sub Station Alpha Duration : 22 min 45 s Bit rate : 190 b/s Count of elements : 436 Compression mode : Lossless Stream size : 31.8 KiB (0%) Title : Full Subtitles [FFF] Language : English Default : Yes Forced : No Menu 00:00:00.000 : :Prologue 00:02:22.016 : :Opening 00:03:51.981 : :Part A 00:12:45.973 : :Part B 00:21:21.029 : :Ending ```

File list

  • [Mysteria] Saenai Heroine no Sodatekata S1+S2 (BD 1080p HEVC FLAC)
    • Season 1
      • NC
        • Saenai Heroine no Sodatekata-NCED [D8BA1989].mkv (81.4 MiB)
        • Saenai Heroine no Sodatekata-NCOP [A330EB8A].mkv (115.6 MiB)
      • [Mysteria] Saenai Heroine no Sodatekata - S01E00 (BD 1080p HEVC FLAC) [9C9BF852].mkv (996.8 MiB)
      • [Mysteria] Saenai Heroine no Sodatekata - S01E01 (BD 1080p HEVC FLAC) [5DDF2811].mkv (830.3 MiB)
      • [Mysteria] Saenai Heroine no Sodatekata - S01E02 (BD 1080p HEVC FLAC) [0232E830].mkv (689.4 MiB)
      • [Mysteria] Saenai Heroine no Sodatekata - S01E03 (BD 1080p HEVC FLAC) [D2DCD115].mkv (669.8 MiB)
      • [Mysteria] Saenai Heroine no Sodatekata - S01E04 (BD 1080p HEVC FLAC) [1C781AF0].mkv (808.0 MiB)
      • [Mysteria] Saenai Heroine no Sodatekata - S01E05 (BD 1080p HEVC FLAC) [31038C36].mkv (682.4 MiB)
      • [Mysteria] Saenai Heroine no Sodatekata - S01E06 (BD 1080p HEVC FLAC) [50F15CF7].mkv (847.5 MiB)
      • [Mysteria] Saenai Heroine no Sodatekata - S01E07 (BD 1080p HEVC FLAC) [A96C8B2E].mkv (705.6 MiB)
      • [Mysteria] Saenai Heroine no Sodatekata - S01E08 (BD 1080p HEVC FLAC) [B44F3755].mkv (750.2 MiB)
      • [Mysteria] Saenai Heroine no Sodatekata - S01E09 (BD 1080p HEVC FLAC) [DA916DB5].mkv (857.4 MiB)
      • [Mysteria] Saenai Heroine no Sodatekata - S01E10 (BD 1080p HEVC FLAC) [D3626369].mkv (824.3 MiB)
      • [Mysteria] Saenai Heroine no Sodatekata - S01E11 (BD 1080p HEVC FLAC) [562746E9].mkv (692.3 MiB)
      • [Mysteria] Saenai Heroine no Sodatekata - S01E12 (BD 1080p HEVC FLAC) [ABA5C00F].mkv (962.1 MiB)
    • Season 2
      • NC
        • Saenai Heroine no Sodatekata Flat - TV ver. NCED [3E0F0B85].mkv (62.2 MiB)
        • Saenai Heroine no Sodatekata Flat - TV ver. NCOP [2E2E5365].mkv (106.8 MiB)
        • Saenai Heroine no Sodatekata Flat-NCED1 [48294FC2].mkv (67.9 MiB)
        • Saenai Heroine no Sodatekata Flat-NCED2 [2FD437FA].mkv (157.0 MiB)
        • Saenai Heroine no Sodatekata Flat-NCOP1 [1D164AD8].mkv (159.3 MiB)
        • Saenai Heroine no Sodatekata Flat-NCOP2 [30DF8AED].mkv (161.7 MiB)
        • Saenai Heroine no Sodatekata Flat-NCOP3 [A2A36A42].mkv (159.3 MiB)
      • [Mysteria] Saenai Heroine no Sodatekata Flat - S01E00 v2 (BD 1080p HEVC FLAC) [8F5D407A].mkv (723.8 MiB)
      • [Mysteria] Saenai Heroine no Sodatekata Flat - S01E01 v2 (BD 1080p HEVC FLAC) [19FABAA7].mkv (725.0 MiB)
      • [Mysteria] Saenai Heroine no Sodatekata Flat - S01E02 v2 (BD 1080p HEVC FLAC) [270B0559].mkv (670.3 MiB)
      • [Mysteria] Saenai Heroine no Sodatekata Flat - S01E03 v2 (BD 1080p HEVC FLAC) [D37A7F51].mkv (657.9 MiB)
      • [Mysteria] Saenai Heroine no Sodatekata Flat - S01E04 v2 (BD 1080p HEVC FLAC) [3BD1D459].mkv (685.2 MiB)
      • [Mysteria] Saenai Heroine no Sodatekata Flat - S01E05 v2 (BD 1080p HEVC FLAC) [E00C2744].mkv (636.5 MiB)
      • [Mysteria] Saenai Heroine no Sodatekata Flat - S01E06 v2 (BD 1080p HEVC FLAC) [B12F48EF].mkv (669.9 MiB)
      • [Mysteria] Saenai Heroine no Sodatekata Flat - S01E07 v2 (BD 1080p HEVC FLAC) [AC6A9A46].mkv (737.3 MiB)
      • [Mysteria] Saenai Heroine no Sodatekata Flat - S01E08 v2 (BD 1080p HEVC FLAC) [62AE7AE3].mkv (607.3 MiB)
      • [Mysteria] Saenai Heroine no Sodatekata Flat - S01E09 v2 (BD 1080p HEVC FLAC) [68D5DF2B].mkv (649.5 MiB)
      • [Mysteria] Saenai Heroine no Sodatekata Flat - S01E10 v2 (BD 1080p HEVC FLAC) [8B2B8EDA].mkv (661.8 MiB)
      • [Mysteria] Saenai Heroine no Sodatekata Flat - S01E11 v2 (BD 1080p HEVC FLAC) [2180AA83].mkv (913.7 MiB)
I already download your previous release of this show 3 days ago, now you want to re-download another 19 GB again? Why not make a batch files that corrects those errors rather to re-download 19 GB once again?
Dark_angel i guess i will make the patch or just dm'ed him to make the patch files
so only season 2 is v2 ?
![](https://i.imgur.com/nPGWyWN.png)
@_Edge_; Thanks for the effort :) It's better this way than re-downloading another 19 GB again in 3 days from the first release. Honetly i don't have a good internet connection in the country were i am staying at the moment so this 19 GB it will be a 3 days of battle for me to re-download it again...
@Dark-Angel subs link = (dek) = [s2 subs link](https://drive.google.com/uc?id=11c9qt8U6hPJffRUMmOOQuNdL0zt1t-97&export=download) (127 MB)
@_Edge_; Thank you!
Yeah… its good practice to make patches when the changes are small enough for it to make sense.
yeah.. this version also same with previous version the opening sub keep appearing n disappearing in S2

Ingenioussubs (uploader)

User
kms. How many damn times do I have to tell people to switch their media players. Either use standard mpv, or the **[GUI version which has a config, and is easier to install.](https://github.com/stax76/mpv.net/releases)**
@Ingenioussubs Always got to integrate the subs myself. Not really a big deal to me. Great content overall. PGS does piss me off sometimes though. Some people don’t know how to integrate or edit subs though. I used to be like that about a year ago.🤦 Better than nothing tbh. Can you please tell me how to integrate subs to make it look nice and what program? Thank you in advance.

Ingenioussubs (uploader)

User
**@Explorer** Contact me at Mysteria #3610 or join my discord as it’s difficult to converse here.
@Ingenioussubs Does the entire series ends with the Movie? I might redownload my stuff for Oregairu [MTBB] and this one.

Ingenioussubs (uploader)

User
**@jhii** Yes, it ends with the movie.

nx6

User
Does anyone have just the subs and attachments (fonts)? I already have Beatrice's release at this point and Anime Tosho did not fetch this or the original version. Edit: Edge's file is all downloaded-out for right now when I tried it.
@Ingenioussubs srry my bad

nx6

User
@Edge Thanks! Was able to grab your file now. Now I just need S1.
[mega s2 subs since google fucked it up](https://mega.nz/file/nlEHAYLA#3eQawsRdhFMvbEmuU-Z6KUXVP_GXkdHvG2Ac4C1E5MY)