[Yūrei] Made in Abyss Movie 3: Fukaki Tamashii no Reimei (Made in Abyss: Dawn of the Deep Soul) [BD 1080p x265 10bit Opus 5.1]

Category:
Date:
2020-10-11 21:10 UTC
Submitter:
Anonymous
Seeders:
11
Information:
No information.
Leechers:
0
File size:
5.9 GiB
Completed:
5090
Info hash:
83dcb9d968ecc9b7131817d5332cdd34ddcdcaef
[![101926.jpg](https://i.postimg.cc/7YyMQZwF/101926.jpg)](https://postimg.cc/pyqFmx9C) [![Made-in-Abyss-Movie-3-Fukaki-Tamashii-no-Reimei-mkv-snapshot-01-39-18-2020-10-10-11-51-55.png](https://i.postimg.cc/NGXk4Hq8/Made-in-Abyss-Movie-3-Fukaki-Tamashii-no-Reimei-mkv-snapshot-01-39-18-2020-10-10-11-51-55.png)](https://postimg.cc/Z0TNY0q0) Format : Matroska Format version : Version 4 File size : 5.94 GiB Duration : 1 h 45 min Overall bit rate : 8 052 kb/s Video ID : 1 Format : HEVC Format/Info : High Efficiency Video Coding Format profile : Main 10@L5@Main Codec ID : V_MPEGH/ISO/HEVC Duration : 1 h 44 min Bit rate : 7 737 kb/s Width : 1 920 pixels Height : 1 080 pixels Display aspect ratio : 16:9 Frame rate mode : Constant Frame rate : 23.976 (24000/1001) FPS Color space : YUV Chroma subsampling : 4:2:0 Bit depth : 10 bits Bits/(Pixel*Frame) : 0.156 Stream size : 5.67 GiB (95%) Writing library : x265 3.4+15-g45f1d01f8:[Windows][MSVC 1927][64 bit] 10bit Encoding settings : cpuid=1111039 / frame-threads=1 / numa-pools=24 / wpp / no-pmode / no-pme / no-psnr / no-ssim / log-level=2 / input-csp=1 / input-res=1920x1080 / interlace=0 / total-frames=150894 / level-idc=0 / high-tier=1 / uhd-bd=0 / ref=6 / no-allow-non-conformance / no-repeat-headers / annexb / no-aud / no-hrd / info / hash=0 / no-temporal-layers / open-gop / min-keyint=23 / keyint=250 / gop-lookahead=0 / bframes=8 / b-adapt=2 / b-pyramid / bframe-bias=0 / rc-lookahead=25 / lookahead-slices=4 / scenecut=40 / hist-scenecut=0 / radl=0 / no-splice / no-intra-refresh / ctu=64 / min-cu-size=8 / rect / no-amp / max-tu-size=32 / tu-inter-depth=1 / tu-intra-depth=1 / limit-tu=0 / rdoq-level=2 / dynamic-rd=0.00 / no-ssim-rd / signhide / no-tskip / nr-intra=0 / nr-inter=0 / no-constrained-intra / strong-intra-smoothing / max-merge=3 / limit-refs=3 / limit-modes / me=3 / subme=3 / merange=57 / temporal-mvp / no-frame-dup / no-hme / weightp / no-weightb / no-analyze-src-pics / deblock=0:0 / no-sao / no-sao-non-deblock / rd=4 / selective-sao=0 / no-early-skip / rskip / no-fast-intra / no-tskip-fast / no-cu-lossless / no-b-intra / no-splitrd-skip / rdpenalty=0 / psy-rd=1.50 / psy-rdoq=4.00 / no-rd-refine / no-lossless / cbqpoffs=0 / crqpoffs=0 / rc=crf / crf=16.0 / qcomp=0.60 / qpstep=4 / stats-write=0 / stats-read=0 / ipratio=1.40 / pbratio=1.30 / aq-mode=3 / aq-strength=1.00 / cutree / zone-count=0 / no-strict-cbr / qg-size=32 / no-rc-grain / qpmax=69 / qpmin=0 / no-const-vbv / sar=0 / overscan=0 / videoformat=5 / range=0 / colorprim=2 / transfer=2 / colormatrix=2 / chromaloc=0 / display-window=0 / cll=0,0 / min-luma=0 / max-luma=1023 / log2-max-poc-lsb=8 / vui-timing-info / vui-hrd-info / slices=1 / no-opt-qp-pps / no-opt-ref-list-length-pps / no-multi-pass-opt-rps / scenecut-bias=0.05 / hist-threshold=0.03 / no-opt-cu-delta-qp / no-aq-motion / no-hdr10 / no-hdr10-opt / no-dhdr10-opt / no-idr-recovery-sei / analysis-reuse-level=0 / analysis-save-reuse-level=0 / analysis-load-reuse-level=0 / scale-factor=0 / refine-intra=0 / refine-inter=0 / refine-mv=1 / refine-ctu-distortion=0 / no-limit-sao / ctu-info=0 / no-lowpass-dct / refine-analysis-type=0 / copy-pic=1 / max-ausize-factor=1.0 / no-dynamic-refine / no-single-sei / no-hevc-aq / no-svt / no-field / qp-adaptation-range=1.00 / no-scenecut-aware-qpconformance-window-offsets / right=0 / bottom=0 / decoder-max-rate=0 Default : Yes Forced : No Audio ID : 2 Format : Opus Codec ID : A_OPUS Duration : 1 h 44 min Bit rate : 363 kb/s Channel(s) : 6 channels Channel layout : L R C Lb Rb LFE Sampling rate : 48.0 kHz Frame rate : 50.000 FPS (960 SPF) Compression mode : Lossy Stream size : 272 MiB (4%) Language : Japanese Default : Yes Forced : No Text #1 ID : 3 Format : UTF-8 Codec ID : S_TEXT/UTF8 Codec ID/Info : UTF-8 Plain Text Duration : 1 h 39 min Bit rate : 61 b/s Count of elements : 1555 Stream size : 44.4 KiB (0%) Language : English Default : No Forced : No Text #2 ID : 4 Format : ASS Codec ID : S_TEXT/ASS Codec ID/Info : Advanced Sub Station Alpha Duration : 1 h 39 min Bit rate : 115 b/s Count of elements : 1589 Compression mode : Lossless Stream size : 83.9 KiB (0%) Title : [Doshigata][Retimed Ver.1] Language : English Default : No Forced : No Text #3 ID : 5 Format : ASS Codec ID : S_TEXT/ASS Codec ID/Info : Advanced Sub Station Alpha Duration : 1 h 44 min Bit rate : 123 b/s Count of elements : 1439 Compression mode : Lossless Stream size : 94.4 KiB (0%) Title : English (by Asenshi & MTBB) Language : English Default : Yes Forced : No

File list

  • Made in Abyss Movie 3 - Fukaki Tamashii no Reimei.mkv (5.9 GiB)
Thanks for all three movies!!
There seems to be something wrong with the Japanese audio, it has some severe artifacts at times. I tested with LatencyMon, which doesn't show audio issues on my system, and also by playing Movie 2, in which I don't hear any artifacts, so I believe it's a fault of the file. It's particularly noticeable during the "intro sequence" of the movie (precisely at 10:40, you can hear how the woman's singing is interrupted by one of these artifacts, then again at 10:44, again at 10:49, 10:52 etc.). I did not hear any artifacts before that point, but they begin happening after the intro. It can be really disruptive sometimes, such as when Nanachi says "oiira ga" at 15:38 and it's cut short by a really loud pop. I'll sadly have to look for another release without this issue :( Edit: just tested with another release, the audio issue is not present in the aforementioned timestamps. It's DEFINITELY a problem with the file itself.
The audio is just fine for me, the other release might have been fine just because it was a lower bitrate.
There is audio issues but they are super small, barely noticeable unless you are nitpicking. If you're just chillin watchin the movie I doubt you would notice or even if you did, care. It's not bad at all.
Kelvets is right, the audio here is fucked, get a different release.
Thanks for the heads up about the audio issues, guys - like Marty O' Donnell says, "Ears don't blink."