[Yūrei] Made in Abyss Movie 2: Hourou Suru Tasogare (Made in Abyss Movie 2: Wandering Twilight) [BD 1080p x265 10bit Opus Tri-Audio]

Category:
Date:
2020-10-11 19:24 UTC
Submitter:
Anonymous
Seeders:
18
Information:
No information.
Leechers:
0
File size:
5.2 GiB
Completed:
3921
Info hash:
d27caeeec943834376427070ea05101d1a8974d3
[![95168.jpg](https://i.postimg.cc/R0t2QYg4/95168.jpg)](https://postimg.cc/mcbdTmx5) [![Made-in-Abyss-Movie-2-Hourou-Suru-Tasogare-mkv-snapshot-00-38-11-2020-10-10-04-39-33.png](https://i.postimg.cc/LXXLFcGM/Made-in-Abyss-Movie-2-Hourou-Suru-Tasogare-mkv-snapshot-00-38-11-2020-10-10-04-39-33.png)](https://postimg.cc/946rGnWx) Format : Matroska Format version : Version 4 File size : 5.22 GiB Duration : 1 h 45 min Overall bit rate : 7 073 kb/s Video ID : 1 Format : HEVC Format/Info : High Efficiency Video Coding Format profile : Main 10@L5@Main Codec ID : V_MPEGH/ISO/HEVC Duration : 1 h 45 min Bit rate : 6 303 kb/s Width : 1 920 pixels Height : 1 080 pixels Display aspect ratio : 16:9 Frame rate mode : Constant Frame rate : 23.976 (24000/1001) FPS Color space : YUV Chroma subsampling : 4:2:0 Bit depth : 10 bits Bits/(Pixel*Frame) : 0.127 Stream size : 4.65 GiB (89%) Writing library : x265 3.4+15-g45f1d01f8:[Windows][MSVC 1927][64 bit] 10bit Encoding settings : cpuid=1111039 / frame-threads=1 / numa-pools=24 / wpp / no-pmode / no-pme / no-psnr / no-ssim / log-level=2 / input-csp=1 / input-res=1920x1080 / interlace=0 / total-frames=151992 / level-idc=0 / high-tier=1 / uhd-bd=0 / ref=6 / no-allow-non-conformance / no-repeat-headers / annexb / no-aud / no-hrd / info / hash=0 / no-temporal-layers / open-gop / min-keyint=23 / keyint=250 / gop-lookahead=0 / bframes=8 / b-adapt=2 / b-pyramid / bframe-bias=0 / rc-lookahead=25 / lookahead-slices=4 / scenecut=40 / hist-scenecut=0 / radl=0 / no-splice / no-intra-refresh / ctu=64 / min-cu-size=8 / rect / no-amp / max-tu-size=32 / tu-inter-depth=1 / tu-intra-depth=1 / limit-tu=0 / rdoq-level=2 / dynamic-rd=0.00 / no-ssim-rd / signhide / no-tskip / nr-intra=0 / nr-inter=0 / no-constrained-intra / strong-intra-smoothing / max-merge=3 / limit-refs=3 / limit-modes / me=3 / subme=3 / merange=57 / temporal-mvp / no-frame-dup / no-hme / weightp / no-weightb / no-analyze-src-pics / deblock=0:0 / no-sao / no-sao-non-deblock / rd=4 / selective-sao=0 / no-early-skip / rskip / no-fast-intra / no-tskip-fast / no-cu-lossless / no-b-intra / no-splitrd-skip / rdpenalty=0 / psy-rd=1.50 / psy-rdoq=4.00 / no-rd-refine / no-lossless / cbqpoffs=0 / crqpoffs=0 / rc=crf / crf=16.0 / qcomp=0.60 / qpstep=4 / stats-write=0 / stats-read=0 / ipratio=1.40 / pbratio=1.30 / aq-mode=3 / aq-strength=1.00 / cutree / zone-count=0 / no-strict-cbr / qg-size=32 / no-rc-grain / qpmax=69 / qpmin=0 / no-const-vbv / sar=0 / overscan=0 / videoformat=5 / range=0 / colorprim=2 / transfer=2 / colormatrix=2 / chromaloc=0 / display-window=0 / cll=0,0 / min-luma=0 / max-luma=1023 / log2-max-poc-lsb=8 / vui-timing-info / vui-hrd-info / slices=1 / no-opt-qp-pps / no-opt-ref-list-length-pps / no-multi-pass-opt-rps / scenecut-bias=0.05 / hist-threshold=0.03 / no-opt-cu-delta-qp / no-aq-motion / no-hdr10 / no-hdr10-opt / no-dhdr10-opt / no-idr-recovery-sei / analysis-reuse-level=0 / analysis-save-reuse-level=0 / analysis-load-reuse-level=0 / scale-factor=0 / refine-intra=0 / refine-inter=0 / refine-mv=1 / refine-ctu-distortion=0 / no-limit-sao / ctu-info=0 / no-lowpass-dct / refine-analysis-type=0 / copy-pic=1 / max-ausize-factor=1.0 / no-dynamic-refine / no-single-sei / no-hevc-aq / no-svt / no-field / qp-adaptation-range=1.00 / no-scenecut-aware-qpconformance-window-offsets / right=0 / bottom=0 / decoder-max-rate=0 Default : Yes Forced : No Audio #1 ID : 6 Format : Opus Codec ID : A_OPUS Duration : 1 h 45 min Bit rate : 376 kb/s Channel(s) : 6 channels Channel layout : L R C Lb Rb LFE Sampling rate : 48.0 kHz Frame rate : 50.000 FPS (960 SPF) Compression mode : Lossy Stream size : 284 MiB (5%) Writing library : Lavc57.89.100 libopus Language : Japanese Default : Yes Forced : No Audio #2 ID : 7 Format : Opus Codec ID : A_OPUS Duration : 1 h 45 min Bit rate : 192 kb/s Channel(s) : 2 channels Channel layout : L R Sampling rate : 48.0 kHz Frame rate : 50.000 FPS (960 SPF) Compression mode : Lossy Stream size : 145 MiB (3%) Writing library : Lavc57.89.100 libopus Language : English Default : No Forced : No Audio #3 ID : 8 Format : Opus Codec ID : A_OPUS Duration : 1 h 45 min Bit rate : 196 kb/s Channel(s) : 2 channels Channel layout : L R Sampling rate : 48.0 kHz Frame rate : 50.000 FPS (960 SPF) Compression mode : Lossy Stream size : 148 MiB (3%) Writing library : Lavc57.89.100 libopus Language : Spanish Default : No Forced : No Text #1 ID : 2 Format : ASS Codec ID : S_TEXT/ASS Codec ID/Info : Advanced Sub Station Alpha Duration : 1 h 38 min Bit rate : 1 b/s Count of elements : 12 Compression mode : Lossless Stream size : 822 Bytes (0%) Title : English Signs (HiDive, SSA) Language : English Default : No Forced : No Text #2 ID : 3 Format : ASS Codec ID : S_TEXT/ASS Codec ID/Info : Advanced Sub Station Alpha Duration : 1 h 38 min Bit rate : 1 b/s Count of elements : 12 Compression mode : Lossless Stream size : 884 Bytes (0%) Title : Spanish Signs (HiDive, SSA) Language : Spanish Default : No Forced : No Text #3 ID : 4 Format : ASS Codec ID : S_TEXT/ASS Codec ID/Info : Advanced Sub Station Alpha Duration : 1 h 42 min Bit rate : 104 b/s Count of elements : 1423 Compression mode : Lossless Stream size : 77.9 KiB (0%) Title : English Subs (HiDive, SSA) Language : English Default : Yes Forced : No Text #4 ID : 5 Format : ASS Codec ID : S_TEXT/ASS Codec ID/Info : Advanced Sub Station Alpha Duration : 1 h 42 min Bit rate : 102 b/s Count of elements : 1300 Compression mode : Lossless Stream size : 77.0 KiB (0%) Title : Spanish Subs (HiDive, SSA) Language : Spanish Default : No Forced : No Menu 00:00:00.000 : ja:Chapter 01 00:00:21.021 : ja:Chapter 02 00:02:16.553 : ja:Chapter 03 00:07:37.290 : ja:Chapter 04 00:25:22.729 : ja:Chapter 05 00:41:32.448 : ja:Chapter 06 00:57:07.132 : ja:Chapter 07 01:41:24.745 : ja:Chapter 08 01:42:39.278 : ja:Chapter 09

File list

  • Made in Abyss Movie 2 - Hourou Suru Tasogare.mkv (5.2 GiB)
Thank you very much!