[naiyas] Made in Abyss - Fukaki Tamashii no Reimei | Dawn of the Deep Soul [BD 1080P HEVC QAACx2 5.1 + 2.0 ch]

Category:
Date:
2020-10-05 15:14 UTC
Submitter:
Seeders:
5
Information:
naiyas#2050 at Discord
Leechers:
0
File size:
6.9 GiB
Completed:
206
Info hash:
b0bc3f5275bf94a5a1b461a7f44467d3916b397b
***Video Source & Audio Source:*** [_**[Anime Land]**_](https://nyaa.si/view/1284043) ***English Sub source:*** [_**[Asenshi-MTBB]**_](https://nyaa.si/view/1286047) ***Spanish Sub source:*** [_**[Argnime Subs]**_](https://nyaa.si/view/1284488) ***Restyled by*** [***naiyas***](https://nyaa.si/user/naiyas) --------- ##### ***All Audio encoded in [QAAC VBR Q 127] to ensure quality*** -------- #### **Screenshots** ![alt text](https://i.slow.pics/9k1JPCDV.png) ![alt text](https://i.slow.pics/RWmFNP9f.png) ![alt text](https://i.slow.pics/Rl7CI5tQ.png) ![alt text](https://i.slow.pics/3fUPU828.png) ![alt text](https://i.slow.pics/EIm93baT.png) --- **General info:** ``` Unique ID : 188584025067393610254290062410612198944 (0x8DDFF64B99222C347DA1BD2372B3CE20) Complete name : [naiyas] Made in Abyss Movie - Fukaki Tamashii no Reimei [BD 1080P HEVC QAACx2].mkv Format : Matroska Format version : Version 4 / Version 2 File size : 6.92 GiB Duration : 1 h 45 min Overall bit rate : 9 378 kb/s Movie name : [naiyas] Made in Abyss Movie - Fukaki Tamashii no Reimei [BD 1080P HEVC QAACx2] Encoded date : UTC 2020-10-05 14:22:09 Writing application : mkvmerge v51.0.0 ('I Wish') 64-bit Writing library : libebml v1.4.0 + libmatroska v1.6.2 Cover : Yes Attachments : cover.jpg / CronosPro-Semibold.ttf / CronosPro-SemiboldIt.ttf / DFGYOSHO-LT-WING-RKSJ-H.TTF / Quadraat-Bold.otf / Rosario-Bold_0.ttf / Panicstricken-8zgD_0.ttf / Barmeno-Roman_0.ttf Video ID : 1 Format : HEVC Format/Info : High Efficiency Video Coding Format profile : Main 10@L5.1@High Codec ID : V_MPEGH/ISO/HEVC Duration : 1 h 44 min Bit rate : 8 434 kb/s Width : 1 920 pixels Height : 1 080 pixels Display aspect ratio : 16:9 Frame rate mode : Constant Frame rate : 23.976 (24000/1001) FPS Color space : YUV Chroma subsampling : 4:2:0 Bit depth : 10 bits Bits/(Pixel*Frame) : 0.170 Stream size : 6.18 GiB (89%) Title : HEVC10 [Anime Land] Writing library : x265 3.4+26-ga82c6c7a7:[Windows][GCC 10.2.1][64 bit] 10bit Encoding settings : cpuid=1111039 / frame-threads=5 / numa-pools=32,32 / wpp / no-pmode / no-pme / no-psnr / no-ssim / log-level=2 / input-csp=1 / input-res=1920x1080 / interlace=0 / total-frames=150894 / level-idc=51 / high-tier=1 / uhd-bd=0 / ref=5 / no-allow-non-conformance / no-repeat-headers / annexb / no-aud / no-hrd / info / hash=0 / no-temporal-layers / open-gop / min-keyint=23 / keyint=250 / gop-lookahead=0 / bframes=16 / b-adapt=2 / b-pyramid / bframe-bias=0 / rc-lookahead=40 / lookahead-slices=0 / scenecut=40 / hist-scenecut=0 / radl=0 / no-splice / no-intra-refresh / ctu=64 / min-cu-size=8 / rect / amp / max-tu-size=32 / tu-inter-depth=3 / tu-intra-depth=3 / limit-tu=4 / rdoq-level=2 / dynamic-rd=0.00 / no-ssim-rd / signhide / no-tskip / nr-intra=0 / nr-inter=0 / no-constrained-intra / strong-intra-smoothing / max-merge=4 / limit-refs=1 / limit-modes / me=3 / subme=4 / merange=57 / temporal-mvp / no-frame-dup / no-hme / weightp / weightb / no-analyze-src-pics / deblock=-3:-3 / sao / no-sao-non-deblock / rd=6 / selective-sao=4 / no-early-skip / rskip / no-fast-intra / no-tskip-fast / no-cu-lossless / b-intra / no-splitrd-skip / rdpenalty=0 / psy-rd=2.00 / psy-rdoq=1.00 / no-rd-refine / no-lossless / cbqpoffs=0 / crqpoffs=0 / rc=crf / crf=15.0 / qcomp=0.80 / qpstep=4 / stats-write=0 / stats-read=0 / vbv-maxrate=160000 / vbv-bufsize=160000 / vbv-init=0.9 / min-vbv-fullness=50.0 / max-vbv-fullness=80.0 / crf-max=0.0 / crf-min=0.0 / ipratio=1.40 / pbratio=1.30 / aq-mode=2 / aq-strength=1.00 / cutree / zone-count=0 / no-strict-cbr / qg-size=32 / no-rc-grain / qpmax=69 / qpmin=0 / no-const-vbv / sar=0 / overscan=0 / videoformat=5 / range=0 / colorprim=2 / transfer=2 / colormatrix=2 / chromaloc=0 / display-window=0 / cll=0,0 / min-luma=0 / max-luma=1023 / log2-max-poc-lsb=8 / vui-timing-info / vui-hrd-info / slices=1 / no-opt-qp-pps / no-opt-ref-list-length-pps / no-multi-pass-opt-rps / scenecut-bias=0.05 / hist-threshold=0.03 / no-opt-cu-delta-qp / no-aq-motion / no-hdr10 / no-hdr10-opt / no-dhdr10-opt / no-idr-recovery-sei / analysis-reuse-level=0 / analysis-save-reuse-level=0 / analysis-load-reuse-level=0 / scale-factor=0 / refine-intra=0 / refine-inter=0 / refine-mv=1 / refine-ctu-distortion=0 / no-limit-sao / ctu-info=0 / no-lowpass-dct / refine-analysis-type=0 / copy-pic=1 / max-ausize-factor=1.0 / no-dynamic-refine / no-single-sei / no-hevc-aq / no-svt / no-field / qp-adaptation-range=1.00 / no-scenecut-aware-qpconformance-window-offsets / right=0 / bottom=0 / decoder-max-rate=0 / no-vbv-live-multi-pass Language : Japanese Default : Yes Forced : No Audio #1 ID : 2 Format : AAC LC Format/Info : Advanced Audio Codec Low Complexity Codec ID : A_AAC-2 Duration : 1 h 44 min Bit rate : 265 kb/s Channel(s) : 2 channels Channel layout : L R Sampling rate : 48.0 kHz Frame rate : 46.875 FPS (1024 SPF) Compression mode : Lossy Delay relative to video : 20 ms Stream size : 197 MiB (3%) Title : QAAC VBR Q 127 [naiyas] Language : Japanese Default : Yes Forced : No Audio #2 ID : 3 Format : AAC LC Format/Info : Advanced Audio Codec Low Complexity Codec ID : A_AAC-2 Duration : 1 h 44 min Bit rate : 738 kb/s Channel(s) : 6 channels Channel layout : C L R Ls Rs LFE Sampling rate : 48.0 kHz Frame rate : 46.875 FPS (1024 SPF) Compression mode : Lossy Delay relative to video : 20 ms Stream size : 554 MiB (8%) Title : QAAC VBR Q 127 [naiyas] Language : Japanese Default : No Forced : No Text #1 ID : 4 Format : ASS Codec ID : S_TEXT/ASS Codec ID/Info : Advanced Sub Station Alpha Duration : 1 h 44 min Bit rate : 123 b/s Count of elements : 1439 Compression mode : Lossless Stream size : 94.4 KiB (0%) Title : Full Subtitles [MTBB-Asenshi][Japanese based] Language : English Default : Yes Forced : No Text #2 ID : 5 Format : ASS Codec ID : S_TEXT/ASS Codec ID/Info : Advanced Sub Station Alpha Duration : 1 h 39 min Bit rate : 112 b/s Count of elements : 1547 Compression mode : Lossless Stream size : 82.6 KiB (0%) Title : Subtítulos completos [Argnime - naiyas][Basado en Japones] Language : Spanish Default : No Forced : No Text #3 ID : 6 Format : ASS Codec ID : S_TEXT/ASS Codec ID/Info : Advanced Sub Station Alpha Duration : 1 h 39 min Bit rate : 104 b/s Count of elements : 1547 Compression mode : Lossless Stream size : 76.6 KiB (0%) Title : Full Subtitles [Doshigata][Japanese based] Language : Spanish Default : No Forced : No Menu 00:00:00.000 : Chapter 01 00:00:21.021 : Chapter 02 00:09:39.412 : Chapter 03 00:11:38.489 : Chapter 04 00:18:38.993 : Chapter 05 00:23:44.173 : Chapter 06 00:28:38.091 : Chapter 07 00:36:55.380 : Chapter 08 00:42:18.995 : Chapter 09 00:50:02.041 : Chapter 10 00:54:01.697 : Chapter 11 00:57:35.494 : Chapter 12 01:01:04.995 : Chapter 13 01:09:08.478 : Chapter 14 01:15:38.409 : Chapter 15 01:20:20.024 : Chapter 16 01:22:20.144 : Chapter 17 01:29:34.619 : Chapter 18 01:38:02.126 : Chapter 19 01:40:25.937 : Chapter 20

File list

  • [naiyas] Made in Abyss Movie - Fukaki Tamashii no Reimei [BD 1080P HEVC QAACx2].mkv (6.9 GiB)
asenshi's encode might not have been good, but anime-land certainly isn't any better...
anime land=best encode.

naiyas (uploader)

User
@An-Land yes have good visual quality

naiyas (uploader)

User
i updated with it Screenshots