Mob Psycho 100 II + OVA [2019] COMPLETE 1080p BDRip x265 PCM 2.0 Kira [SEV]

Category:
Date:
2020-10-05 01:30 UTC
Submitter:
Seeders:
4
Information:
No information.
Leechers:
1
File size:
52.7 GiB
Completed:
147
Info hash:
56efe71098cf6af3e27a04cb0188aea42c3ebe29
![alt text](https://thumbs2.imgbox.com/04/42/A7v1UjnJ_t.png "SEV") #Screenshot's Thumbs ![alt text](https://thumbs2.imgbox.com/68/57/NBMeP9t1_t.png) ![alt text](https://thumbs2.imgbox.com/7a/50/KGstMWxc_t.png) ![alt text](https://thumbs2.imgbox.com/5f/4f/Pdcf1vkD_t.png) ![alt text](https://thumbs2.imgbox.com/ea/68/dH8jpDQc_t.png) ![alt text](https://thumbs2.imgbox.com/cc/32/vWNfYnaP_t.png) ![alt text](https://thumbs2.imgbox.com/d9/c3/UomOEIWV_t.png) ![alt text](https://thumbs2.imgbox.com/87/5d/cVp7vCx0_t.png) ![alt text](https://thumbs2.imgbox.com/52/ac/KhSn3cie_t.png) Source vs Encode https://imgbox.com/4hsGVMn5 ------------- https://imgbox.com/NBMeP9t1 https://imgbox.com/DBmzlFXt ------------- https://imgbox.com/KGstMWxc https://imgbox.com/VJmgmqG6 ------------- https://imgbox.com/Pdcf1vkD https://imgbox.com/r0dw5pgB ------------- https://imgbox.com/Pdcf1vkD https://imgbox.com/qliYBZE9 ------------- https://imgbox.com/dH8jpDQc https://imgbox.com/Vn6h4MT0 ------------- https://imgbox.com/vWNfYnaP https://imgbox.com/dhHlRRNg ------------- https://imgbox.com/UomOEIWV https://imgbox.com/ejFUXXbb ------------- https://imgbox.com/cVp7vCx0 Media Information ``` General Unique ID : 81597435593877337395893315078332472948 (0x3D63182E8033ADF288915894B96DDE74) Complete name : Mob Psycho 100 II - 01 1080p BDRip x265 PCM 2.0 Kira [SEV].mkv Format : Matroska Format version : Version 4 File size : 3.43 GiB Duration : 24 min 12 s Overall bit rate mode : Variable Overall bit rate : 20.3 Mb/s Movie name : Mob Psycho 100 II : 01 : Ripped Apart ~Someone Is Watching~ Encoded date : UTC 2020-09-09 13:29:38 Writing application : mkvmerge v50.0.0 ('Awakenings') 64-bit Writing library : libebml v1.4.0 + libmatroska v1.6.2 Video ID : 1 Format : HEVC Format/Info : High Efficiency Video Coding Format profile : Main 10@L4@Main Codec ID : V_MPEGH/ISO/HEVC Duration : 24 min 12 s Bit rate : 16.2 Mb/s Width : 1 920 pixels Height : 1 080 pixels Display aspect ratio : 16:9 Frame rate mode : Constant Frame rate : 23.976 (24000/1001) FPS Color space : YUV Chroma subsampling : 4:2:0 Bit depth : 10 bits Bits/(Pixel*Frame) : 0.325 Stream size : 2.73 GiB (80%) Title : Mob Psycho 100 II : 01 : Ripped Apart ~Someone Is Watching~ Writing library : x265 3.4+20-g06c52b0fd:[Windows][MSVC 1927][64 bit] 10bit Encoding settings : cpuid=1111039 / frame-threads=2 / numa-pools=4 / wpp / no-pmode / no-pme / no-psnr / no-ssim / log-level=2 / input-csp=1 / input-res=1920x1080 / interlace=0 / total-frames=34820 / level-idc=0 / high-tier=1 / uhd-bd=0 / ref=5 / no-allow-non-conformance / no-repeat-headers / annexb / no-aud / no-hrd / info / hash=0 / no-temporal-layers / open-gop / min-keyint=23 / keyint=250 / gop-lookahead=0 / bframes=16 / b-adapt=2 / b-pyramid / bframe-bias=0 / rc-lookahead=100 / lookahead-slices=0 / scenecut=40 / hist-scenecut=0 / radl=0 / no-splice / no-intra-refresh / ctu=64 / min-cu-size=8 / no-rect / no-amp / max-tu-size=32 / tu-inter-depth=4 / tu-intra-depth=4 / limit-tu=4 / rdoq-level=2 / dynamic-rd=0.00 / no-ssim-rd / signhide / no-tskip / nr-intra=0 / nr-inter=0 / no-constrained-intra / no-strong-intra-smoothing / max-merge=4 / limit-refs=1 / limit-modes / me=3 / subme=7 / merange=92 / temporal-mvp / no-frame-dup / no-hme / weightp / weightb / no-analyze-src-pics / deblock=0:0 / no-sao / no-sao-non-deblock / rd=6 / selective-sao=0 / no-early-skip / rskip / no-fast-intra / no-tskip-fast / no-cu-lossless / b-intra / no-splitrd-skip / rdpenalty=0 / psy-rd=2.00 / psy-rdoq=1.00 / no-rd-refine / no-lossless / cbqpoffs=0 / crqpoffs=0 / rc=crf / crf=15.5 / qcomp=0.60 / qpstep=4 / stats-write=0 / stats-read=0 / ipratio=1.40 / pbratio=1.30 / aq-mode=3 / aq-strength=1.70 / cutree / zone-count=0 / no-strict-cbr / qg-size=32 / no-rc-grain / qpmax=69 / qpmin=0 / no-const-vbv / sar=0 / overscan=0 / videoformat=5 / range=0 / colorprim=2 / transfer=2 / colormatrix=2 / chromaloc=0 / display-window=0 / cll=0,0 / min-luma=0 / max-luma=1023 / log2-max-poc-lsb=8 / vui-timing-info / vui-hrd-info / slices=1 / no-opt-qp-pps / no-opt-ref-list-length-pps / no-multi-pass-opt-rps / scenecut-bias=0.05 / hist-threshold=0.03 / no-opt-cu-delta-qp / no-aq-motion / no-hdr10 / no-hdr10-opt / no-dhdr10-opt / no-idr-recovery-sei / analysis-reuse-level=0 / analysis-save-reuse-level=0 / analysis-load-reuse-level=0 / scale-factor=0 / refine-intra=0 / refine-inter=0 / refine-mv=1 / refine-ctu-distortion=0 / no-limit-sao / ctu-info=0 / no-lowpass-dct / refine-analysis-type=0 / copy-pic=1 / max-ausize-factor=1.0 / no-dynamic-refine / no-single-sei / no-hevc-aq / no-svt / no-field / qp-adaptation-range=1.00 / no-scenecut-aware-qpconformance-window-offsets / right=0 / bottom=0 / decoder-max-rate=0 Language : Japanese Default : Yes Forced : No Audio #1 ID : 2 ID in the original source m : 4352 (0x1100) Format : PCM Format settings : Little / Signed Codec ID : A_PCM/INT/LIT Duration : 24 min 12 s Bit rate mode : Constant Bit rate : 2 304 kb/s Channel(s) : 2 channels Sampling rate : 48.0 kHz Frame rate : 30.000 FPS (1600 SPF) Bit depth : 24 bits Stream size : 399 MiB (11%) Title : Japanese BD PCM DD_2.0 @ 2304 Kbps Language : Japanese Default : Yes Forced : No Original source medium : Blu-ray Audio #2 ID : 3 ID in the original source m : 4352 (0x1100) Format : MLP FBA Format/Info : Meridian Lossless Packing FBA Commercial name : Dolby TrueHD Codec ID : A_TRUEHD Duration : 24 min 11 s Bit rate mode : Variable Bit rate : 1 681 kb/s Maximum bit rate : 2 625 kb/s Channel(s) : 6 channels Channel layout : L R C LFE Ls Rs Sampling rate : 48.0 kHz Frame rate : 1 200.000 FPS (40 SPF) Compression mode : Lossless Stream size : 291 MiB (8%) Title : English BD TrueHD DD_5.1 @ 1681 Kbps Language : English Default : No Forced : No Original source medium : Blu-ray Text #1 ID : 4 ID in the original source m : 4608 (0x1200) Format : PGS Codec ID : S_HDMV/PGS Codec ID/Info : Picture based subtitle format used on BDs/HD-DVDs Duration : 24 min 8 s Bit rate : 73.8 kb/s Count of elements : 884 Stream size : 12.7 MiB (0%) Title : English (Full) BD PGS Sub Language : English Default : Yes Forced : No Original source medium : Blu-ray Text #2 ID : 5 ID in the original source m : 4609 (0x1201) Format : PGS Codec ID : S_HDMV/PGS Codec ID/Info : Picture based subtitle format used on BDs/HD-DVDs Duration : 24 min 8 s Bit rate : 14.5 kb/s Count of elements : 151 Stream size : 2.50 MiB (0%) Title : English (Signs & Songs) BD PGS Sub Language : English Default : No Forced : No Original source medium : Blu-ray Menu 00:00:00.000 : ja:Chapter 01 00:06:34.977 : ja:Chapter 02 00:08:04.942 : ja:Chapter 03 00:14:19.233 : ja:Chapter 04 00:22:21.798 : ja:Chapter 05 00:23:55.225 : ja:Chapter 06 ``` Source Information ``` [JAP-BD][BDMV] モブサイコ100 II (102 GB) Mob Psycho 100 S02 2019 1080p GBR Blu-ray AVC TrueHD 5.1-PzD (88.8 GB) [JAP-BD][BDMV] Mob Psycho 100 II OVA (2019) (8.41 GB) ``` We have no issue with individuals posting or re-uploading our torrents on a platform we aren't on. However, if this is something you'd like to do, please do so in a 'as-is' format. We ask that you do not create a new torrent, include all descriptions you see above including the SEV logo, tags, notes and screenshots. If you'd like to become a permanent poster on a website we don't post to, feel free to get in contact with a Sublime Encoded Video member. We are recruiting/training new members for SEV & seedbox providers as well as people to help out with subtitles. As you already know, we deliver quality, so you know the standard. If you're interested, feel free to contact any of the team members.

File list

  • Mob Psycho 100
    • Mob Psycho 100 II [2019] COMPLETE 1080p BDRip x265 PCM 2.0 Kira [SEV]
      • Extras
        • BD Menu
          • [Disc 01] Mob Psycho 100 II - BD Menu.mkv (206.4 MiB)
          • [Disc 02] Mob Psycho 100 II - BD Menu.mkv (183.5 MiB)
          • [Disc 03] Mob Psycho 100 II - BD Menu.mkv (203.1 MiB)
          • [Disc 04] Mob Psycho 100 II - BD Menu.mkv (222.8 MiB)
          • [Disc 05] Mob Psycho 100 II - BD Menu.mkv (168.5 MiB)
          • [Disc 06] Mob Psycho 100 II - BD Menu.mkv (149.7 MiB)
          • [Disc OVA] Mob Psycho 100 II - BD Menu.mkv (82.6 MiB)
          • [Disc USBD] Mob Psycho 100 II - BD Menu.mkv (48.3 MiB)
        • Creditless Endings
          • [Creditless Ending] Mob Psycho 100 II - 01.mkv (208.7 MiB)
          • [Creditless Ending] Mob Psycho 100 II - 05.mkv (168.2 MiB)
          • [Creditless Ending] Mob Psycho 100 II - 07.mkv (204.4 MiB)
          • [Creditless Ending] Mob Psycho 100 II - 13.mkv (195.0 MiB)
          • [Creditless Ending] Mob Psycho 100 II - Main.mkv (211.2 MiB)
        • Key Animation Footage for Selected Scenes
          • [Disc 01] Key Animation Footage for Selected Scenes.mkv (307.4 MiB)
          • [Disc 02] Key Animation Footage for Selected Scenes.mkv (287.7 MiB)
          • [Disc 03] Key Animation Footage for Selected Scenes.mkv (175.7 MiB)
          • [Disc 04] Key Animation Footage for Selected Scenes.mkv (165.3 MiB)
          • [Disc 05] Key Animation Footage for Selected Scenes.mkv (284.3 MiB)
          • [Disc 06] Key Animation Footage for Selected Scenes.mkv (280.6 MiB)
        • Trailers & Promos
          • [Promo 01] Mob Psycho 100 II.mkv (69.2 MiB)
          • [Promo 02] Mob Psycho 100 II.mkv (73.4 MiB)
          • [Promo 03] Mob Psycho 100 II.mkv (78.3 MiB)
          • [Trailer 01] Mob Psycho 100 II.mkv (138.4 MiB)
          • [Trailer 02] Mob Psycho 100 II.mkv (150.8 MiB)
        • Mob Psycho 100 II - Storyboard Correction Footage.mkv (151.7 MiB)
      • Mob Psycho 100 II - 01 1080p BDRip x265 PCM 2.0 Kira [SEV].mkv (3.4 GiB)
      • Mob Psycho 100 II - 02 1080p BDRip x265 PCM 2.0 Kira [SEV].mkv (3.5 GiB)
      • Mob Psycho 100 II - 03 1080p BDRip x265 PCM 2.0 Kira [SEV].mkv (3.3 GiB)
      • Mob Psycho 100 II - 04 1080p BDRip x265 PCM 2.0 Kira [SEV].mkv (3.4 GiB)
      • Mob Psycho 100 II - 05 1080p BDRip x265 PCM 2.0 Kira [SEV].mkv (3.7 GiB)
      • Mob Psycho 100 II - 06 1080p BDRip x265 PCM 2.0 Kira [SEV].mkv (3.3 GiB)
      • Mob Psycho 100 II - 07 1080p BDRip x265 PCM 2.0 Kira [SEV].mkv (3.3 GiB)
      • Mob Psycho 100 II - 08 1080p BDRip x265 PCM 2.0 Kira [SEV].mkv (3.6 GiB)
      • Mob Psycho 100 II - 09 1080p BDRip x265 PCM 2.0 Kira [SEV].mkv (3.5 GiB)
      • Mob Psycho 100 II - 10 1080p BDRip x265 PCM 2.0 Kira [SEV].mkv (3.5 GiB)
      • Mob Psycho 100 II - 11 1080p BDRip x265 PCM 2.0 Kira [SEV].mkv (3.7 GiB)
      • Mob Psycho 100 II - 12 1080p BDRip x265 PCM 2.0 Kira [SEV].mkv (3.8 GiB)
      • Mob Psycho 100 II - 13 1080p BDRip x265 PCM 2.0 Kira [SEV].mkv (3.6 GiB)
      • Mob Psycho 100 II - OVA 1080p BDRip x265 PCM 2.0 Kira [SEV].mkv (2.7 GiB)

Kira_SEV (uploader)

User
My box will be dead in few days and I don't have any other support for seed. If anyone can help then please let me know. Keep the stuff alive.

sff

User
@Kira_SEV i can help. if you want?
Why use x265 and then proceed to use PCM

Kira_SEV (uploader)

User
@sff Thanks for the offer. I've jus joined your team Discord server (Anime Time). Ping me over there. @Simplistic I jus like to keep BD Lossless track with the titles that I like, and also to keep the best quality possible. Besides size is not much.
@Kira_SEV Why didn't you change it to FLAC then?

Kira_SEV (uploader)

User
@Godim As I mentioned, I like to keep lossless track from BD. If someone wants then they can easily convert it to FLAC or any other format they like. It's easy.
> I like to keep lossless track from BD. FLAC is a lossless codec. There is no reason to ever keep PCM. Additionally I just ran your screenshots through getnative since it seems you didn't descale, and turns out that was right, too. Mob Psycho was animated at 720p native and upscaled, in standard BONES fashion, with a stupid sharp bicubic upscale and the result looks terrible. Lots of haloing to go around which could easily be fixed if properly descaled and then rescaled if you want to release in 1080p. Seicher-Raws properly filtered and looks better at half the size ([comparison](https://slow.pics/c/GUW4QkyS)). The recent SaltSplash release is easily the best currently out as it also features much better subtitles apart from using Seicher as video source. This is likely to fall onto deaf ears, but if you want to release quality, you don't do it by just pressing your source through the encoder at low CRF.

Kira_SEV (uploader)

User
@Tsukudakobashi I think you're misunderstanding, what I mean is that I like it untouched, so PCM. There's no reason for you guys to keep it same. Convert it to FLAC. As for the other thing, Seicher-Raws are doing their thing and I'm doing mine. What I feel was right, I did that. Someone else will find other encodes better than that. For me, producing as close to source as possible under some limitations is quality. Some like to filter things and try to make it better in their own way. I'm not here to compete/beat/please anyone. Jus sharing my stuff. ¯\_(ツ)_/¯
Thanks for sharing! I guess everyone has their own perception of quality and your banner "Quality is not an act. It's a habit" as well your statement is provoking people to question your standards. Cheers.

Kira_SEV (uploader)

User
@Yukino You're welcome. As I stated, I'm trying to provide as close to source as possible and you can check the comparison and see it looks approx same as source.
@Tsukudakobashi Thank you! I couldn't figure out why all the releases of this season looked so shitty. Imagine your official bluray looking this bad
@Kira_SEV fair I guess