[neoHEVC] Student Council's Discretion [Season 1] [BD 1080p x265 HEVC AAC] Seitokai no Ichizon

Category:
Date:
2020-10-03 08:02 UTC
Submitter:
Seeders:
13
Information:
Leechers:
0
File size:
3.4 GiB
Completed:
919
Info hash:
8469ea61a5f333e7d48f767f0049aa1bca169db9
![](https://i.imgur.com/clpISvn.png) *Join **[Discord](https://discord.gg/KYKYZUh)** for Current Projects, Encode-Requests and Seed-Request in case of no available seeds.* **Student Council's Discretion / Seitokai no Ichizon [Season 1]** *with `Jpn Dub` and `Eng Subs` in `BD 1080p HEVC`* Reencode of [ANK-Raws] (x264 AVC FLAC) to (x265 HEVC AAC) with added subtitles from [HarEM/SS]. *Side Note: I tried to fix all the little scene bleeds for signs that I could find. All the sub sources on Nyaa I checked didn't have any fonts so I tried to track them all down and include them. Hope I got them all. Source had black borders (see comparison screenshots below) which I cropped. Had to do this the first time and messed up the right side a little :S (there is still a thin border left there but it's not very noticable).* ![](https://i.imgur.com/4iegWLL.png) **[Trailer](https://www.youtube.com/watch?v=6McwyThpYPk)** ![](https://i.imgur.com/3UxGuWB.png) ![](https://i.imgur.com/ZCtSawZ.png) **[MyAnimeList](https://myanimelist.net/anime/5909/Seitokai_no_Ichizon)** --- **Related Releases:** 2️⃣ [Season 2](https://nyaa.si/view/1286053) ▶️ [Season 2 OVA: Watasu Seitokai [DDL Link on Season 2 Page]](https://nyaa.si/view/1286053) --- **Synopsis** Imagine living life as the vice president of the student council, passing the days eating snacks, playing games, and bonding with a harem of beautiful girls. This is exactly the kind of life that high school student Ken Sugisaki leads, or so he thinks! Usually, the officers of Hekiyou Academy's student council are elected by popular vote, but an additional position is granted to the student who scores the highest on the exams. Ken, who historically has had below average grades, worked hard to improve them to be accepted into the student council, with the ultimate goal of surrounding himself with girls who fawn over him. Unfortunately for the vice president, things do not go quite as planned. Not only do the ladies of the council continually rebuff his advances, they also prefer to focus on more important and "boring" activities, such as organizing school events and managing the other clubs. But a few minor hurdles like these won't stop Ken from chasing after his dreams, even if they seem a bit ridiculous. ![](https://i.imgur.com/cvU7p2S.png) --- **Comparison** (avc: source, hevc: encode) *Open links, toggle with mouseclick and check title.* [![](https://i.imgur.com/b2KRLIN.png)](https://slow.pics/c/LlQhnge9) [![](https://i.imgur.com/PBtkzBv.png)](https://slow.pics/c/fKWLegFz) [![](https://i.imgur.com/s0NTAzK.png)](https://slow.pics/c/SD414CWw) --- **Source** ?️ Video and Audio: **[[ANK-Raws]](https://nyaa.si/view/368043)** ?️ Subs: **[[Cleo]](https://nyaa.si/view/987686)** ? *Subtitles Info: [HarEM/SS] - Format `ASS`* --- **Media Info** ``` General Unique ID : 70331996558387585776647570437792048830 (0x34E97327896C7A3AEDB7B34A0D63A6BE) Complete name : Student Council's Discretion - S01E01.mkv Format : Matroska Format version : Version 4 File size : 271 MiB Duration : 24 min 26 s Overall bit rate : 1 553 kb/s Encoded date : UTC 2020-10-01 12:54:17 Writing application : mkvmerge v47.0.0 ('Black Flag') 64-bit Writing library : libebml v1.3.10 + libmatroska v1.5.2 / Lavf58.29.100 Attachments : DFHSM9.TTC / Amira Black.otf / FOT-SeuratPro-DB.otf / ABALC.TTF / AlainasHand-Regular.ttf / Amplitude-Medium_3556.ttf / AshtonsHand-Regular.ttf / Chelpt__.ttf / contm.ttf / English Gothic, 17th c..TTF / English Gothic-Extended Normal.ttf / Forgotty.ttf / HuiFont29.ttf / IPAMonaPGothic, Regular.ttf / Napapiiri.ttf / OhisamaFont11.ttf Video ID : 1 Format : HEVC Format/Info : High Efficiency Video Coding Format profile : Main 10@L4.1@High Codec ID : V_MPEGH/ISO/HEVC Duration : 24 min 25 s Bit rate : 1 276 kb/s Width : 1 920 pixels Height : 1 080 pixels Display aspect ratio : 16:9 Frame rate mode : Constant Frame rate : 23.976 (24000/1001) FPS Color space : YUV Chroma subsampling : 4:2:0 Bit depth : 10 bits Bits/(Pixel*Frame) : 0.026 Stream size : 223 MiB (82%) Writing library : x265 3.2.1+1-b5c86a64bbbe:[Windows][GCC 9.2.0][64 bit] 10bit Encoding settings : cpuid=1111039 / frame-threads=2 / numa-pools=4 / wpp / no-pmode / no-pme / no-psnr / no-ssim / log-level=2 / input-csp=1 / input-res=1920x1080 / interlace=0 / total-frames=0 / level-idc=41 / high-tier=1 / uhd-bd=0 / ref=5 / no-allow-non-conformance / no-repeat-headers / annexb / no-aud / no-hrd / info / hash=0 / no-temporal-layers / open-gop / min-keyint=24 / keyint=240 / gop-lookahead=0 / bframes=8 / b-adapt=2 / b-pyramid / bframe-bias=0 / rc-lookahead=25 / lookahead-slices=4 / scenecut=40 / radl=0 / no-splice / no-intra-refresh / ctu=64 / min-cu-size=8 / rect / no-amp / max-tu-size=32 / tu-inter-depth=1 / tu-intra-depth=1 / limit-tu=0 / rdoq-level=2 / dynamic-rd=0.00 / no-ssim-rd / signhide / no-tskip / nr-intra=0 / nr-inter=0 / no-constrained-intra / strong-intra-smoothing / max-merge=3 / limit-refs=3 / limit-modes / me=3 / subme=3 / merange=57 / temporal-mvp / no-hme / weightp / no-weightb / no-analyze-src-pics / deblock=0:0 / sao / no-sao-non-deblock / rd=4 / selective-sao=4 / no-early-skip / rskip / no-fast-intra / no-tskip-fast / no-cu-lossless / no-b-intra / no-splitrd-skip / rdpenalty=0 / psy-rd=0.00 / psy-rdoq=1.00 / no-rd-refine / no-lossless / cbqpoffs=0 / crqpoffs=0 / rc=crf / crf=21.0 / qcomp=0.60 / qpstep=4 / stats-write=0 / stats-read=0 / vbv-maxrate=50000 / vbv-bufsize=50000 / vbv-init=0.9 / crf-max=0.0 / crf-min=0.0 / ipratio=1.40 / pbratio=1.30 / aq-mode=3 / aq-strength=0.80 / cutree / zone-count=0 / no-strict-cbr / qg-size=32 / no-rc-grain / qpmax=69 / qpmin=0 / no-const-vbv / sar=1 / overscan=0 / videoformat=5 / range=0 / colorprim=1 / transfer=1 / colormatrix=1 / chromaloc=0 / display-window=0 / cll=0,0 / min-luma=0 / max-luma=1023 / log2-max-poc-lsb=8 / vui-timing-info / vui-hrd-info / slices=1 / no-opt-qp-pps / no-opt-ref-list-length-pps / no-multi-pass-opt-rps / scenecut-bias=0.05 / no-opt-cu-delta-qp / no-aq-motion / no-hdr / no-hdr-opt / no-dhdr10-opt / no-idr-recovery-sei / analysis-reuse-level=5 / scale-factor=0 / refine-intra=0 / refine-inter=0 / refine-mv=1 / refine-ctu-distortion=0 / no-limit-sao / ctu-info=0 / no-lowpass-dct / refine-analysis-type=0 / copy-pic=1 / max-ausize-factor=1.0 / no-dynamic-refine / no-single-sei / no-hevc-aq / no-svt / no-field / qp-adaptation-range=1.00 Default : Yes Forced : No Color range : Limited Color primaries : BT.709 Transfer characteristics : BT.709 Matrix coefficients : BT.709 Audio ID : 2 Format : AAC LC Format/Info : Advanced Audio Codec Low Complexity Codec ID : A_AAC-2 Duration : 24 min 26 s Bit rate : 192 kb/s Channel(s) : 2 channels Channel layout : L R Sampling rate : 48.0 kHz Frame rate : 46.875 FPS (1024 SPF) Compression mode : Lossy Delay relative to video : -43 ms Stream size : 33.6 MiB (12%) Title : Stereo - JPN (AAC) Language : Japanese Default : Yes Forced : No Text ID : 3 Format : ASS Codec ID : S_TEXT/ASS Codec ID/Info : Advanced Sub Station Alpha Duration : 24 min 24 s Bit rate : 479 b/s Count of elements : 839 Compression mode : Lossless Stream size : 85.7 KiB (0%) Title : Dialog - ENG (ASS) Language : English Default : Yes Forced : No Menu 00:00:00.000 : :Chapter 1 00:02:19.181 : :Chapter 2 00:03:49.312 : :Chapter 3 00:15:04.237 : :Chapter 4 00:22:41.026 : :Chapter 5 00:24:11.241 : :Chapter 6 ```

File list

  • [neoHEVC] Student Council's Discretion [Season 1] [BD 1080p x265 HEVC AAC]
    • Student Council's Discretion - S01E01.mkv (267.6 MiB)
    • Student Council's Discretion - S01E02.mkv (303.5 MiB)
    • Student Council's Discretion - S01E03.mkv (324.6 MiB)
    • Student Council's Discretion - S01E04.mkv (300.1 MiB)
    • Student Council's Discretion - S01E05.mkv (277.9 MiB)
    • Student Council's Discretion - S01E06.mkv (309.6 MiB)
    • Student Council's Discretion - S01E07.mkv (286.0 MiB)
    • Student Council's Discretion - S01E08.mkv (277.5 MiB)
    • Student Council's Discretion - S01E09.mkv (276.1 MiB)
    • Student Council's Discretion - S01E10.mkv (252.0 MiB)
    • Student Council's Discretion - S01E11.mkv (305.5 MiB)
    • Student Council's Discretion - S01E12.mkv (261.4 MiB)
Very nice! Die Firma dankt :)

neoborn (uploader)

User
Come back GERMini we all miss you! =(
Thank you ♥❤💚❤️💘💕