[naiyas] 「Fate Stay Night [Heaven's Feel] - II lost butterfly」[BD 1080P HEVC10 QAACx2 Dual Audio]

Category:
Date:
2020-10-03 06:16 UTC
Submitter:
Seeders:
13
Information:
Leechers:
3
File size:
10.5 GiB
Completed:
1077
Info hash:
4b46f1a8aa6360151df3ac4a774cfa17bd1389cf
***Video source:*** [_**[Beatrice-Raws]**_](https://nyaa.si/view/1170465) ***English Audio & Subs source:*** [_**Komorebi’s**_](https://nyaa.si/view/1169633) ***styling*** | ***docodemo444’s*** |[_**[SCY]**_](https://nyaa.si/view/1196415) --- ##### ***All audio are encoded in : **[QAAC VBR Q127]** to ensure the quality*** ------ ##### ***Fate Series list:*** [_**[naiyas] Fate Stay Night - Unlimited Blade Works S1 & S2 + Special | Extras [BD 1080P HEVC10 QAACx2 Dual Audio]**_](https://nyaa.si/view/1284808) [_**[naiyas] Fate Stay Night - Unlimited Blade Works Movie [BD 1080P HEVC10 QAACx2 Dual Audio]**_](https://nyaa.si/view/1284990) [_**[naiyas] 「Fate stay night [Heaven's Feel] - I presage flower」[BD 1080P HEVC10 QAACx2 5.1 Dual Audio]**_](https://nyaa.si/view/1285210) [_**[naiyas] Fate Zero [BD 1080P HEVC10 QAACx2 Dual Audio]**_](https://nyaa.si/view/1284601) ------ ### **Screenshots** ![alt text](https://i.slow.pics/e5oGu8iB.png) ![alt text](https://i.slow.pics/fIdOfjsO.png) ![alt text](https://i.slow.pics/YbOrqgHj.png) ![alt text](https://i.slow.pics/3ytiievA.png) ![alt text](https://i.slow.pics/bNAHfm5o.png) ![alt text](https://i.slow.pics/Bhhwzatr.png) ![alt text](https://i.slow.pics/LFnRGK9g.png) ![alt text](https://i.slow.pics/SrrygXg5.png) ![alt text](https://i.slow.pics/pHbfpc4N.png) ![alt text](https://i.slow.pics/fTD83PCA.png) ------ ``` General Unique ID : 10285535450714580353844679251127208296 (0x7BCEC0CE6BDF7D9F55F487485F88968) Complete name : [naiyas] 「Fate Stay Night [Heaven's Feel] - II lost butterfly」[BD 1080P HEVC10 QAACx2 Dual Audio].mkv Format : Matroska Format version : Version 4 / Version 2 File size : 9.94 GiB Duration : 1 h 57 min Overall bit rate : 12.2 Mb/s Movie name : [naiyas] 「Fate/Stay Night [Heaven's Feel] - II lost butterfly」[BD 1080P HEVC10 QAACx2 Dual Audio] Encoded date : UTC 2020-10-03 05:33:53 Writing application : mkvmerge v50.0.0 ('Awakenings') 64-bit Writing library : libebml v1.4.0 + libmatroska v1.6.2 Attachments : chapters.xml / Digital Dot Roadsign.otf / FRAHV.TTF / Profile-Medium.otf / Profile-MediumItalic.otf Video ID : 1 Format : HEVC Format/Info : High Efficiency Video Coding Format profile : Main 10@L4@Main Codec ID : V_MPEGH/ISO/HEVC Duration : 1 h 57 min Bit rate : 10.7 Mb/s Width : 1 920 pixels Height : 1 080 pixels Display aspect ratio : 16:9 Frame rate mode : Constant Frame rate : 23.976 (24000/1001) FPS Color space : YUV Chroma subsampling : 4:2:0 Bit depth : 10 bits Bits/(Pixel*Frame) : 0.216 Stream size : 8.78 GiB (88%) Writing library : x265 3.1+8-21db162c8622:[DJATOM's Mod][Windows][GCC 9.1.1][64 bit] 10bit Encoding settings : cpuid=1049583 / frame-threads=8 / numa-pools=32,32 / wpp / pmode / pme / no-psnr / no-ssim / log-level=2 / csv / csv-log-level=1 / input-csp=1 / input-res=1920x1080 / interlace=0 / total-frames=168504 / level-idc=0 / high-tier=1 / uhd-bd=0 / ref=4 / no-allow-non-conformance / no-repeat-headers / annexb / no-aud / no-hrd / info / hash=0 / no-temporal-layers / open-gop / min-keyint=23 / keyint=240 / gop-lookahead=0 / bframes=9 / b-adapt=2 / b-pyramid / bframe-bias=0 / rc-lookahead=20 / lookahead-slices=6 / scenecut=40 / radl=0 / no-splice / no-intra-refresh / ctu=64 / min-cu-size=8 / no-rect / no-amp / max-tu-size=32 / tu-inter-depth=2 / tu-intra-depth=2 / limit-tu=0 / rdoq-level=2 / dynamic-rd=0.00 / no-ssim-rd / signhide / no-tskip / nr-intra=0 / nr-inter=0 / no-constrained-intra / strong-intra-smoothing / max-merge=3 / limit-refs=1 / limit-modes / me=2 / subme=5 / merange=48 / temporal-mvp / hme / Level / weightp / weightb / no-analyze-src-pics / deblock=1:-1 / no-sao / no-sao-non-deblock / rd=4 / no-early-skip / no-rskip / no-fast-intra / no-tskip-fast / no-cu-lossless / b-intra / no-splitrd-skip / rdpenalty=0 / psy-rd=2.00 / psy-rdoq=4.00 / no-rd-refine / no-lossless / cbqpoffs=-2 / crqpoffs=-2 / rc=crf / crf=14.8 / qcomp=0.72 / qpstep=4 / stats-write=0 / stats-read=0 / ipratio=1.40 / pbratio=1.30 / aq-mode=4 / aq-strength=0.86 / no-cutree / zone-count=0 / no-strict-cbr / qg-size=32 / no-rc-grain / qpmax=69 / qpmin=0 / no-const-vbv / sar=1 / overscan=0 / videoformat=5 / range=0 / colorprim=1 / transfer=1 / colormatrix=1 / chromaloc=0 / display-window=0cll=0,0 / min-luma=0 / max-luma=1023 / log2-max-poc-lsb=8 / vui-timing-info / vui-hrd-info / slices=1 / no-opt-qp-pps / no-opt-ref-list-length-pps / no-multi-pass-opt-rps / scenecut-bias=0.05 / no-opt-cu-delta-qp / no-aq-motion / no-hdr / no-hdr-opt / no-dhdr10-opt / no-idr-recovery-sei / analysis-reuse-level=5 / scale-factor=0 / refine-intra=0 / refine-inter=0 / refine-mv=0 / refine-ctu-distortion=0 / no-limit-sao / ctu-info=0 / no-lowpass-dct / refine-analysis-type=0 / copy-pic=1 / max-ausize-factor=1.0 / no-dynamic-refine / no-single-sei / hevc-aq / no-svt / no-field / qp-adaptation-range=2.00 Language : Japanese Default : Yes Forced : No Color range : Limited Color primaries : BT.709 Transfer characteristics : BT.709 Matrix coefficients : BT.709 Audio #1 ID : 2 Format : AAC LC Format/Info : Advanced Audio Codec Low Complexity Codec ID : A_AAC-2 Duration : 1 h 57 min Bit rate : 693 kb/s Channel(s) : 6 channels Channel layout : C L R Ls Rs LFE Sampling rate : 48.0 kHz Frame rate : 46.875 FPS (1024 SPF) Compression mode : Lossy Delay relative to video : 20 ms Stream size : 581 MiB (6%) Title : QAAC VBR Q127 [naiyas] Language : English Default : Yes Forced : No Audio #2 ID : 3 Format : AAC LC Format/Info : Advanced Audio Codec Low Complexity Codec ID : A_AAC-2 Duration : 1 h 57 min Bit rate : 686 kb/s Channel(s) : 6 channels Channel layout : C L R Ls Rs LFE Sampling rate : 48.0 kHz Frame rate : 46.875 FPS (1024 SPF) Compression mode : Lossy Delay relative to video : 20 ms Stream size : 575 MiB (6%) Title : QAAC VBR Q127 [naiyas] Language : Japanese Default : No Forced : No Text #1 ID : 4 Format : PGS Muxing mode : zlib Codec ID : S_HDMV/PGS Codec ID/Info : Picture based subtitle format used on BDs/HD-DVDs Duration : 26 min 45 s Bit rate : 2 128 b/s Count of elements : 40 Stream size : 417 KiB (0%) Title : Signs [USBD] Language : English Default : No Forced : No Text #2 ID : 5 Format : ASS Codec ID : S_TEXT/ASS Codec ID/Info : Advanced Sub Station Alpha Duration : 1 h 56 min Bit rate : 71 b/s Count of elements : 1108 Compression mode : Lossless Stream size : 61.2 KiB (0%) Title : Full Subtitle [Japanese based][docodemo444’s] Language : English Default : Yes Forced : No Text #3 ID : 6 Format : PGS Muxing mode : zlib Codec ID : S_HDMV/PGS Codec ID/Info : Picture based subtitle format used on BDs/HD-DVDs Duration : 1 h 56 min Bit rate : 150 kb/s Count of elements : 6211 Stream size : 125 MiB (1%) Title : Full Subtitles [Japanese based][USBD] Language : English Default : No Forced : No Menu 00:00:00.000 : en:Avant 00:04:19.551 : en:Part A 00:06:01.236 : en:Part B 00:11:14.215 : en:Part C 00:15:10.368 : en:Part D 00:20:21.345 : en:Part E 00:23:48.427 : en:Part F 00:28:46.183 : en:Part G 00:41:34.200 : en:Part H 00:46:34.208 : en:Part I 00:50:03.417 : en:Part J 00:54:46.283 : en:Part K 00:59:51.254 : en:Part L 01:05:44.983 : en:Part M 01:10:01.489 : en:Part N 01:16:13.360 : en:Part O 01:22:21.812 : en:Part P 01:29:35.704 : en:Part Q 01:34:24.158 : en:Part R 01:39:34.302 : en:Part S 01:42:03.951 : en:Part T 01:46:08.320 : en:Part U 01:51:18.672 : en:ED 01:55:49.943 : en:Next

File list

  • [naiyas] 「Fate Stay Night [Heaven's Feel] - II lost butterfly」[BD 1080P HEVC10 QAACx2 Dual Audio]
    • CD
      • Fate,stay night [Heaven's Feel] II. lost butterfly Original Soundtrack
        • 01 - avant-title.flac (10.0 MiB)
        • 02 - you have to choose your future.flac (9.7 MiB)
        • 03 - small talk, with my brother.flac (2.6 MiB)
        • 04 - in the passing train.flac (2.5 MiB)
        • 05 - hurring to the library.flac (4.5 MiB)
        • 06 - you shouldn't have come here all alone.flac (5.2 MiB)
        • 07 - something I can do.flac (4.0 MiB)
        • 08 - she is her Hero.flac (2.6 MiB)
        • 09 - what she was hiding.flac (7.5 MiB)
        • 10 - the butterfly emerge.flac (20.0 MiB)
        • 11 - she's made up her mind.flac (5.5 MiB)
        • 12 - he still can't choose his future.flac (6.5 MiB)
        • 13 - let's go home together.flac (6.9 MiB)
        • 14 - I will be her Hero.flac (4.0 MiB)
        • 15 - what he has believed.flac (10.1 MiB)
        • 16 - there is a crack.flac (6.2 MiB)
        • 17 - he goes, she goes.flac (3.7 MiB)
        • 18 - the outbreak of war.flac (13.5 MiB)
        • 19 - she rules the battlefield.flac (17.0 MiB)
        • 20 - come on, make your move.flac (7.9 MiB)
        • 21 - He comes back again and again.flac (17.9 MiB)
        • 22 - what else, we can do.flac (8.3 MiB)
        • 23 - despair and hope.flac (16.3 MiB)
        • 24 - petals and butterfly.flac (19.9 MiB)
        • 25 - in a gentle world.flac (8.6 MiB)
        • 26 - my stomach is rumbling!.flac (6.8 MiB)
        • 27 - some sweet candies.flac (8.4 MiB)
        • 28 - and another dinner.flac (11.8 MiB)
        • 29 - spreading disaster.flac (5.4 MiB)
        • 30 - gloomy tension.flac (5.9 MiB)
        • 31 - bad dream, sad future.flac (3.9 MiB)
        • 32 - an invitation from the old man.flac (3.2 MiB)
        • 33 - can you save her.flac (13.7 MiB)
        • 34 - the song we once sang.flac (8.5 MiB)
        • 35 - a tiny flower in my dream.flac (4.9 MiB)
        • 36 - I will face my fate.flac (7.9 MiB)
        • 37 - the lost butterfly.flac (10.5 MiB)
        • Fate,stay night [Heaven's Feel] II. lost butterfly Original Soundtrack.cue (7.9 KiB)
        • Yuki Kajiura - Fate,stay night [Heaven's Feel] II. lost butterfly Original Soundtrack.log (37.0 KiB)
        • Yuki Kajiura - Fate,stay night [Heaven's Feel] II. lost butterfly Original Soundtrack.m3u8 (3.0 KiB)
      • [EAC] [190109] 劇場版 Fate/stay night [Heaven`s Feel] II.lost butterfly 主題歌「I beg you」[期間生産限定盤]/Aimer
        • BK
          • 01.png (7.3 MiB)
          • 02.png (8.3 MiB)
          • 03.png (6.8 MiB)
          • 04.png (7.7 MiB)
          • 05.png (6.7 MiB)
          • 06.png (6.6 MiB)
          • 07.png (6.9 MiB)
          • 08.png (7.9 MiB)
          • 09.png (5.3 MiB)
          • 10.png (3.8 MiB)
          • 11.png (3.4 MiB)
          • 12.png (3.0 MiB)
          • 13.png (5.1 MiB)
          • 14.png (5.3 MiB)
        • 01. I beg you.flac (30.3 MiB)
        • 02. 花びらたちのマーチ.flac (21.6 MiB)
        • 03. Sailing.flac (37.6 MiB)
        • 04. Mine .Mellow Yellow ver.-.flac (38.4 MiB)
        • 05. ポラリス [haruka nakamura ursa remix].flac (35.1 MiB)
        • cover1a.jpg (112.3 KiB)
        • cover1b.jpg (104.3 KiB)
        • cover2a.jpg (74.2 KiB)
        • cover2b.jpg (151.3 KiB)
        • cover3a.jpg (74.2 KiB)
        • cover3b.jpg (134.3 KiB)
    • [naiyas] 「Fate Stay Night [Heaven's Feel] - II lost butterfly」[BD 1080P HEVC10 QAACx2 Dual Audio].mkv (9.9 GiB)

naiyas (uploader)

User
### ***Stay tuned for more **Fate** series release***
Hell yes :) More Fate goodness!!!
Hey thanks ,how are you doing '? Iwant to ask when will the third movie will be released.. ty.