[naiyas] 「Fate stay night [Heaven's Feel] - I presage flower」[BD 1080P HEVC10 QAACx2 5.1 Dual Audio]

Category:
Date:
2020-10-01 02:32 UTC
Submitter:
Seeders:
12
Information:
[naiyas](https://discord.gg/7RXgKK)
Leechers:
1
File size:
7.5 GiB
Completed:
978
Info hash:
17fd90d2af8a114e93d14a073d99d64b8c75412d
***Video source:*** [_**[VCB-Studio]**_](https://nyaa.si/view/1036170) ***English Audio & Subs source:*** [_**[SCY]**_](https://nyaa.si/view/1199598) --- #### ***All audio are encoded in [QAAC VBR Q127] to ensure the quality*** --- #### ***Fate Series list:*** [_**[naiyas] Fate Stay Night - Unlimited Blade Works S1 & S2 + Special | Extras [BD 1080P HEVC10 QAACx2 Dual Audio]**_](https://nyaa.si/view/1284808) [_**[naiyas] Fate Stay Night - Unlimited Blade Works Movie [BD 1080P HEVC10 QAACx2 Dual Audio]**_](https://nyaa.si/view/1284990) --- #### **Screenshots** ![alt text](https://i.slow.pics/tLXzOj8e.png) ![alt text](https://i.slow.pics/OVHl2ZQK.png) ![alt text](https://i.slow.pics/HkroLYsy.png) ![alt text](https://i.slow.pics/D6CfT2vx.png) ![alt text](https://i.slow.pics/Tt9M1IbU.png) ![alt text](https://i.slow.pics/2BWDo8CG.png) ![alt text](https://i.slow.pics/G7SQf4Lx.png) ![alt text](https://i.slow.pics/oB7hNyXG.png) ![alt text](https://i.slow.pics/FND1o1oj.png) ![alt text](https://i.slow.pics/PQrAOThW.png) --- ``` General Unique ID : 97670748050290346294163136035535999825 (0x497AB3AB876F9A24B34225E1FB485351) Complete name : [naiyas] 「Fate Stay Night [Heaven's Feel] - I presage flower」[BD 1080P HEVC10 QAACx2 Dual Audio].mkv Format : Matroska Format version : Version 4 / Version 2 File size : 6.67 GiB Duration : 2 h 0 min Overall bit rate : 7 918 kb/s Movie name : [naiyas] 「Fate/Stay Night [Heaven's Feel] - I presage flower」[BD 1080P HEVC10 QAACx2 Dual Audio] Encoded date : UTC 2020-09-27 10:06:14 Writing application : mkvmerge v50.0.0 ('Awakenings') 64-bit Writing library : libebml v1.4.0 + libmatroska v1.6.2 Attachments : GandhiSans-BoldItalic.otf / GandhiSans-Bold.otf / ArnoPro-Caption.otf / ARLRDBD.TTF / arialbd.ttf / Advert-Bold.otf / KozMinPro-Heavy.otf / KozGoPr6n-B.ttf / IwaOMinPro-Bd-Fate.ttf / hapole_pencil.ttf Video ID : 1 Format : HEVC Format/Info : High Efficiency Video Coding Format profile : Main 10@L4.1@High Codec ID : V_MPEGH/ISO/HEVC Duration : 2 h 0 min Bit rate : 6 570 kb/s Width : 1 920 pixels Height : 1 080 pixels Display aspect ratio : 16:9 Frame rate mode : Constant Frame rate : 23.976 (24000/1001) FPS Color space : YUV Chroma subsampling : 4:2:0 Bit depth : 10 bits Bits/(Pixel*Frame) : 0.132 Stream size : 5.53 GiB (83%) Writing library : x265 2.5+5-0b3ba15b33ea:[Windows][MSVC 1911][64 bit] 10bit Encoding settings : cpuid=1173503 / frame-threads=4 / numa-pools=-,-,-,+ / wpp / no-pmode / no-pme / no-psnr / no-ssim / log-level=2 / input-csp=1 / input-res=1920x1080 / interlace=0 / total-frames=0 / level-idc=0 / high-tier=1 / uhd-bd=0 / ref=4 / no-allow-non-conformance / no-repeat-headers / annexb / no-aud / no-hrd / info / hash=0 / no-temporal-layers / no-open-gop / min-keyint=1 / keyint=360 / bframes=6 / b-adapt=2 / b-pyramid / bframe-bias=0 / rc-lookahead=80 / lookahead-slices=4 / scenecut=40 / no-intra-refresh / ctu=32 / min-cu-size=8 / rect / no-amp / max-tu-size=32 / tu-inter-depth=2 / tu-intra-depth=2 / limit-tu=4 / rdoq-level=2 / dynamic-rd=0.00 / no-ssim-rd / signhide / no-tskip / nr-intra=0 / nr-inter=0 / no-constrained-intra / no-strong-intra-smoothing / max-merge=3 / limit-refs=2 / limit-modes / me=3 / subme=4 / merange=38 / temporal-mvp / weightp / weightb / no-analyze-src-pics / deblock=-1:-1 / no-sao / no-sao-non-deblock / rd=5 / no-early-skip / rskip / no-fast-intra / no-tskip-fast / no-cu-lossless / b-intra / rdpenalty=0 / psy-rd=1.80 / psy-rdoq=1.00 / no-rd-refine / analysis-reuse-mode=0 / no-lossless / cbqpoffs=-3 / crqpoffs=-3 / rc=crf / crf=15.0 / qcomp=0.65 / qpstep=4 / stats-write=0 / stats-read=0 / vbv-maxrate=32000 / vbv-bufsize=40000 / vbv-init=0.9 / crf-max=0.0 / crf-min=0.0 / ipratio=1.40 / pbratio=1.20 / aq-mode=1 / aq-strength=0.80 / cutree / zone-count=0 / no-strict-cbr / qg-size=8 / no-rc-grain / qpmax=69 / qpmin=0 / no-const-vbv / sar=0 / overscan=0 / videoformat=5 / range=0 / colorprim=2 / transfer=2 / colormatrix=1 / chromaloc=0 / display-window=0 / max-cll=0,0 / min-luma=0 / max-luma=1023 / log2-max-poc-lsb=8 / vui-timing-info / vui-hrd-info / slices=1 / opt-qp-pps / opt-ref-list-length-pps / no-multi-pass-opt-rps / scenecut-bias=0.05 / no-opt-cu-delta-qp / no-aq-motion / no-hdr / no-hdr-opt / no-dhdr10-opt / analysis-reuse-level=5 / scale-factor=0 / refine-intra=0 / refine-inter=0 / refine-mv=0 / no-limit-sao / ctu-info=0 Language : Japanese Default : Yes Forced : No Color range : Limited Matrix coefficients : BT.709 Audio #1 ID : 2 Format : AAC LC Format/Info : Advanced Audio Codec Low Complexity Codec ID : A_AAC-2 Duration : 2 h 0 min Bit rate : 680 kb/s Channel(s) : 6 channels Channel layout : C L R Ls Rs LFE Sampling rate : 48.0 kHz Frame rate : 46.875 FPS (1024 SPF) Compression mode : Lossy Delay relative to video : 20 ms Stream size : 587 MiB (9%) Title : QAAC VBR Q127 [naiyas] Language : English Default : Yes Forced : No Audio #2 ID : 3 Format : AAC LC Format/Info : Advanced Audio Codec Low Complexity Codec ID : A_AAC-2 Duration : 2 h 0 min Bit rate : 662 kb/s Channel(s) : 6 channels Channel layout : C L R Ls Rs LFE Sampling rate : 48.0 kHz Frame rate : 46.875 FPS (1024 SPF) Compression mode : Lossy Delay relative to video : 20 ms Stream size : 566 MiB (8%) Title : QAAC VBR Q127 [naiyas] Language : Japanese Default : No Forced : No Text #1 ID : 4 Format : ASS Codec ID : S_TEXT/ASS Codec ID/Info : Advanced Sub Station Alpha Duration : 2 h 0 min Bit rate : 223 b/s Count of elements : 1137 Compression mode : Lossless Stream size : 196 KiB (0%) Title : Signs & Songs Language : English Default : No Forced : No Text #2 ID : 5 Format : ASS Codec ID : S_TEXT/ASS Codec ID/Info : Advanced Sub Station Alpha Duration : 2 h 0 min Bit rate : 285 b/s Count of elements : 2194 Compression mode : Lossless Stream size : 251 KiB (0%) Title : Full Subtitles [Japanese based][daraku modified] Language : English Default : No Forced : No Text #3 ID : 6 Format : ASS Codec ID : S_TEXT/ASS Codec ID/Info : Advanced Sub Station Alpha Duration : 2 h 0 min Bit rate : 288 b/s Count of elements : 2244 Compression mode : Lossless Stream size : 254 KiB (0%) Title : Full Subtitles [Japanese based][Kametsu modified] Language : English Default : Yes Forced : No Menu 00:00:00.000 : :Chapter 01 00:04:19.884 : :Chapter 02 00:09:07.838 : :Chapter 03 00:12:32.126 : :Chapter 04 00:19:47.394 : :Chapter 05 00:26:44.102 : :Chapter 06 00:29:58.004 : :Chapter 07 00:34:50.588 : :Chapter 08 00:40:10.991 : :Chapter 09 00:47:07.574 : :Chapter 10 00:52:19.177 : :Chapter 11 00:59:06.543 : :Chapter 12 01:07:36.886 : :Chapter 13 01:15:41.119 : :Chapter 14 01:20:32.202 : :Chapter 15 01:24:49.417 : :Chapter 16 01:30:56.742 : :Chapter 17 01:38:43.125 : :Chapter 18 01:44:11.370 : :Chapter 19 01:51:28.264 : :Chapter 20 01:53:39.312 : :Chapter 21 01:59:21.154 : :Chapter 22 02:00:34.393 : :Chapter 23

File list

  • [naiyas] 「Fate stay night [Heaven's Feel] - I presage flower」[BD 1080P HEVC10 QAACx2 Dual Audio]
    • CDs
      • [171011] 「花の唄/ONE/六等星の夜 Magic Blue ver.」/Aimer (flac+webp)
        • Scans
          • SEC8-16_01.webp (4.9 MiB)
          • SEC8-16_02.webp (5.3 MiB)
          • SEC8-16_03.webp (3.0 MiB)
          • SEC8-16_04.webp (2.6 MiB)
          • SEC8-16_05.webp (4.3 MiB)
          • SEC8-16_06.webp (5.0 MiB)
          • SEC8-16_07.webp (3.7 MiB)
          • SEC8-16_08.webp (2.7 MiB)
          • SEC8-16_09.webp (5.2 MiB)
          • SEC8-16_Back.webp (3.1 MiB)
          • SEC8-16_Cover.webp (4.4 MiB)
          • SEC8-16_Disc.webp (2.1 MiB)
          • SEC8-16_Inner.webp (3.2 MiB)
          • SEC8-16_Obi.webp (753.1 KiB)
          • SECL-2209~10_01.webp (18.0 MiB)
          • SECL-2209~10_02.webp (13.2 MiB)
          • SECL-2209~10_03.webp (11.9 MiB)
          • SECL-2209~10_04.webp (6.4 MiB)
          • SECL-2209~10_05.webp (2.4 MiB)
          • SECL-2209~10_06.webp (1.4 MiB)
          • SECL-2209~10_07.webp (1.4 MiB)
          • SECL-2212_01.webp (4.6 MiB)
          • SECL-2212_02.webp (4.5 MiB)
          • SECL-2212_03.webp (4.7 MiB)
          • SECL-2212_04.webp (4.9 MiB)
          • SECL-2212_05.webp (4.6 MiB)
          • SECL-2212_06.webp (3.9 MiB)
          • SECL-2212_Back.webp (3.1 MiB)
          • SECL-2212_Cover.webp (4.6 MiB)
          • SECL-2212_Disc.webp (2.0 MiB)
          • SECL-2212_Inner.webp (3.1 MiB)
          • poster_1.webp (64.4 MiB)
          • poster_2.webp (53.3 MiB)
        • SECL-2212.cue (588 Bytes)
        • SECL-2212.flac (182.8 MiB)
        • SECL-2212.jpg (543.6 KiB)
        • SECL-2212.log (4.9 KiB)
      • [171014] SPCD Drama 「First Interlude」 (flac+jpg)
        • Scans
          • CD1.jpg (2.2 MiB)
          • CD2.jpg (2.1 MiB)
          • CD3.jpg (2.0 MiB)
          • CD4.jpg (1.7 MiB)
          • box front.jpg (1.9 MiB)
          • box rear.jpg (1.8 MiB)
          • pamphlet.jpg (2.0 MiB)
        • TGCS-10278.cue (420 Bytes)
        • TGCS-10278.flac (79.0 MiB)
        • TGCS-10278.jpg (47.1 KiB)
        • TGCS-10278.log (1.5 KiB)
      • [180509] SPCD Soundtrack/梶浦由記 (flac)
        • ANZX-14403.cue (3.3 KiB)
        • ANZX-14403.flac (278.0 MiB)
        • ANZX-14403.jpg (425.8 KiB)
        • ANZX-14403.log (7.6 KiB)
    • [naiyas] 「Fate Stay Night [Heaven's Feel] - I presage flower」[BD 1080P HEVC10 QAACx2 Dual Audio].mkv (6.7 GiB)
Will you make 2nd part?

naiyas (uploader)

User
@TheDevilsHyper >Will you make 2nd part? **yes** I will release all Fate Series in **[HEVC10 QAAC]**