Digimon Adventure: Last Evolution - Kizuna (2020) (1080p H.264 iTunes WEB-DL) (Dual-Audio)

Category:
Date:
2020-09-30 08:20 UTC
Submitter:
Seeders:
0
Information:
Leechers:
1
File size:
4.5 GiB
Completed:
356
Info hash:
f7f0377cf631f2479b5f918f49a4371e340c735e
![img](https://images-na.ssl-images-amazon.com/images/I/714VbUYJvzL._AC_SY606_.jpg) My first dual-audio release of *Digimon Adventure: Last Evolution - Kizuna*. This is by no means a definitive release. Thanks to DmonHiro for the v1 subs for the Japanese version, KaiDubs for the English 5.1 audio, iTunes US WEB-DL and closed captions, and Anime-Land for the JPBD 5.1 channel audio. This is first-and-foremost a dub-centric release, with a focus on compatibility, rather than maxed out bit depth. I'll do a version of the USBD in 10-bit if I'm able to (no promises). **MediaInfo:** ``` General Unique ID : 78696561874567964276582829949135046856 (0x3B3468109C465F6013A30230E3F748C8) Complete name : E:\Digimon Kizuna\Digimon Adventure Last Evolution Kizuna (2020) (1080p H.264 iTunes WEB-DL) (Dual-Audio) [D2A9F079].mkv Format : Matroska Format version : Version 4 File size : 4.47 GiB Duration : 1 h 34 min Overall bit rate mode : Variable Overall bit rate : 6 757 kb/s Movie name : [Anime Land] Digimon Adventure - Last Evolution Kizuna (BDRip 1080p Hi10P FLAC) [Encode By Omar] Encoded date : UTC 2020-09-30 06:43:44 Writing application : mkvmerge v47.0.0 ('Black Flag') 64-bit Writing library : libebml v1.3.10 + libmatroska v1.5.2 Attachments : trebucbd.ttf / trebucbi.ttf Video ID : 1 Format : AVC Format/Info : Advanced Video Codec Format profile : High@L4 Format settings : CABAC / 4 Ref Frames Format settings, CABAC : Yes Format settings, Reference frames : 4 frames Codec ID : V_MPEG4/ISO/AVC Duration : 1 h 34 min Bit rate : 4 999 kb/s Width : 1 908 pixels Height : 1 068 pixels Display aspect ratio : 16:9 Frame rate mode : Constant Frame rate : 23.976 (24000/1001) FPS Color space : YUV Chroma subsampling : 4:2:0 Bit depth : 8 bits Scan type : Progressive Bits/(Pixel*Frame) : 0.102 Stream size : 3.31 GiB (74%) Title : US iTunes (WEB-DL) Language : English Default : Yes Forced : No Color range : Limited Color primaries : BT.709 Transfer characteristics : BT.709 Matrix coefficients : BT.709 Audio #1 ID : 2 Format : AC-3 Format/Info : Audio Coding 3 Commercial name : Dolby Digital Codec ID : A_AC3 Duration : 1 h 34 min Bit rate mode : Constant Bit rate : 384 kb/s Channel(s) : 6 channels Channel layout : L R C LFE Ls Rs Sampling rate : 48.0 kHz Frame rate : 31.250 FPS (1536 SPF) Bit depth : 16 bits Compression mode : Lossy Delay relative to video : -42 ms Stream size : 260 MiB (6%) Title : iTunes English Dub Audio (5.1) Language : English Service kind : Complete Main Default : Yes Forced : No Audio #2 ID : 4 Format : FLAC Format/Info : Free Lossless Audio Codec Codec ID : A_FLAC Duration : 1 h 34 min Bit rate mode : Variable Bit rate : 1 375 kb/s Channel(s) : 6 channels Channel layout : L R C LFE Ls Rs Sampling rate : 48.0 kHz Frame rate : 11.719 FPS (4096 SPF) Bit depth : 16 bits Compression mode : Lossless Delay relative to video : 808 ms Stream size : 930 MiB (20%) Title : Original Japanese Audio (5.1) Writing library : libFLAC 1.3.3 (UTC 2019-08-04) Language : Japanese Default : No Forced : No Text #1 ID : 3 Format : UTF-8 Codec ID : S_TEXT/UTF8 Codec ID/Info : UTF-8 Plain Text Duration : 1 h 29 min Bit rate : 59 b/s Count of elements : 1182 Stream size : 38.9 KiB (0%) Title : Closed Captions (SRT) Language : English Default : Yes Forced : No Text #2 ID : 5 Format : ASS Codec ID : S_TEXT/ASS Codec ID/Info : Advanced Sub Station Alpha Duration : 1 h 30 min Bit rate : 82 b/s Count of elements : 1153 Compression mode : Lossless Stream size : 54.7 KiB (0%) Title : TOEI Animation Sub By DmonHiro Language : English Default : No Forced : No Menu 00:00:00.000 : en:1 00:11:36.000 : en:2 00:21:54.000 : en:3 00:32:43.000 : en:4 00:44:34.000 : en:5 00:57:37.000 : en:6 01:07:06.000 : en:7 01:18:25.000 : en:8 01:30:38.000 : en:9 ``` *Enjoy, and don’t forget to seed!* **If you enjoyed this release, do consider donating.** **BTC:** 1PwAZGwp6F2vsPMVW4fSpQB7K2GRxmwM8R **XLM:** GDB3IVXH22Q3F6ROVSEWK3HTPWHF5G2CCWXHP436K7SUL2UCO2VXXX4C **Ether:** 0xA46712a91cc7816B52D19810D7f3AC33188805d2 **USDT:** 0x08bbfe02b7d3b4e637d0d026f7c2cb85a8b81bb2 **DOGE:** DRxdEmt41va1xvrFUXLnqYJnFqcFt9LUSC **NOTE:** ERC-20 wallet address may have changed. Please do not donate ETH for now. If you want to donate, I'd recommend you donate BTC, as that goes directly to my Blockchain address. Join the Telegram channel for more releases! https://t.me/veloencodesreleases

File list

  • Digimon Adventure Last Evolution Kizuna (2020) (1080p H.264 iTunes WEB-DL) (Dual-Audio) [D2A9F079].mkv (4.5 GiB)
Why would you go through the trouble of doing this and opt to use iTunes video over the Blu-ray?
the iTunes rip you can get the English [CC] Closed Captions
If there is no re-encoding, you don't have to tag this as a remake.

thecharioteermode (uploader)

User
@ChaoXide, purely for cosmetic reasons. I wanted as dub-centric an experience as anyone could get. The iTunes English video has some stuff that the JPBD doesn't, like hardcoded subs for Butter-fly, kanji changed to English, an English logo, and a translation of the title of Tai's thesis. @Godim, understood. I'll change it.