[naiyas] Fate Stay Night - Unlimited Blade Works Movie [BD 1080P HEVC10 QAACx2 Dual Audio]

Category:
Date:
2020-09-30 05:59 UTC
Submitter:
Seeders:
11
Information:
[naiyas](https://discord.gg/7RXgKK)
Leechers:
5
File size:
9.2 GiB
Completed:
657
Info hash:
acb4f14b0af0c362cb5bd54ae5095027538be09b
***Video Japanese Audio source:*** [***VCB-Studio***](https://nyaa.si/view/703029) ***English Audio & PGS subs:*** [***philosophy-raws***](https://nyaa.si/view/616691) ***[Restyled - naiyas] Subtitle SRT source:*** [***YTS SRT***](https://yifysubtitles.org/subtitles/gekijouban-fatestay-night-unlimited-blade-works-2010-english-yify-92877) --- ##### ***All audio are encoded in [QAAC VBR Q127] to ensure the quality*** --- ##### ***Fate Series list:*** [_**[naiyas] Fate Stay Night - Unlimited Blade Works S1 & S2 + Special | Extras [BD 1080P HEVC10 QAACx2 Dual Audio]**_](https://nyaa.si/view/1284808) --- #### **Screenshots** ![alt text](https://i.slow.pics/yj1vY8vB.png) ![alt text](https://i.slow.pics/wUnbHKiK.png) ![alt text](https://i.slow.pics/jfejYXXD.png) ![alt text](https://i.slow.pics/PKi3Xla2.png) ![alt text](https://i.slow.pics/eAbUSMjj.png) ![alt text](https://i.slow.pics/4SjaGtOl.png) ![alt text](https://i.slow.pics/ZElAlA5r.png) ![alt text](https://i.slow.pics/xxtFJZIr.png) ![alt text](https://i.slow.pics/Ee3k0bVM.png) --- **General info:** ``` Unique ID : 232109245995174102445758190863541297820 (0xAE9E9D5E7EA57FEEBB33C6E1D7E7629C) Complete name : [naiyas] Fate Stay Night - Unlimited Blade Works Movie [BD 1080P HEVC10 QAACx2 Dual Audio].mkv Format : Matroska Format version : Version 4 / Version 2 File size : 8.69 GiB Duration : 1 h 45 min Overall bit rate : 11.8 Mb/s Movie name : Fate/Stay Night - Unlimited Blade Works [Movie]: Gekijouban [BD 1080P HEVC10 QAACx2 Dual Audio] Encoded date : UTC 2020-09-30 03:24:51 Writing application : mkvmerge v50.0.0 ('Awakenings') 64-bit Writing library : libebml v1.4.0 + libmatroska v1.6.2 Video ID : 1 Format : HEVC Format/Info : High Efficiency Video Coding Format profile : Main 10@L5@High Codec ID : V_MPEGH/ISO/HEVC Duration : 1 h 45 min Bit rate : 10.5 Mb/s Width : 1 920 pixels Height : 1 080 pixels Display aspect ratio : 16:9 Frame rate mode : Constant Frame rate : 23.976 (24000/1001) FPS Color space : YUV Chroma subsampling : 4:2:0 Bit depth : 10 bits Bits/(Pixel*Frame) : 0.212 Stream size : 7.77 GiB (89%) Writing library : x265 1.7+51-a7bf7a150a70+12@b4d9cbbb1c57:[Windows][GCC 4.9.2][64 bit] Yuuki 16bpp Encoding settings : wpp / ctu=64 / min-cu-size=8 / max-tu-size=32 / tu-intra-depth=3 / tu-inter-depth=3 / me=3 / subme=5 / merange=44 / no-rect / no-amp / max-merge=4 / temporal-mvp / no-early-skip / rdpenalty=2 / no-tskip / no-tskip-fast / no-strong-intra-smoothing / no-lossless / no-cu-lossless / no-constrained-intra / no-fast-intra / no-open-gop / no-temporal-layers / interlace=0 / keyint=720 / min-keyint=1 / scenecut=40 / rc-lookahead=80 / lookahead-slices=0 / bframes=10 / bframe-bias=0 / b-adapt=2 / ref=5 / limit-refs=0 / weightp / weightb / aq-mode=1 / aq-strength=1.10 / cbqpoffs=0 / crqpoffs=0 / rd=5 / psy-rd=0.80 / rdoq-level=1 / psy-rdoq=4.00 / signhide / deblock=-2:-2 / no-sao / no-sao-non-deblock / b-pyramid / cutree / rc=crf / crf=15.5000 / qcomp=0.80 / qpmin=0 / qpmax=51 / qpstep=4 / vbv-maxrate=30000 / vbv-bufsize=28000 / crf-max=0.0 / ipratio=1.40 / pbratio=1.30 Language : English Default : Yes Forced : No Audio #1 ID : 2 Format : AAC LC Format/Info : Advanced Audio Codec Low Complexity Codec ID : A_AAC-2 Duration : 1 h 45 min Bit rate : 632 kb/s Channel(s) : 6 channels Channel layout : C L R Ls Rs LFE Sampling rate : 48.0 kHz Frame rate : 46.875 FPS (1024 SPF) Compression mode : Lossy Delay relative to video : 1 s 20 ms Stream size : 478 MiB (5%) Title : QAAC VBR Q127 [naiyas] Language : English Default : Yes Forced : No Audio #2 ID : 3 Format : AAC LC Format/Info : Advanced Audio Codec Low Complexity Codec ID : A_AAC-2 Duration : 1 h 45 min Bit rate : 613 kb/s Channel(s) : 6 channels Channel layout : C L R Ls Rs LFE Sampling rate : 48.0 kHz Frame rate : 46.875 FPS (1024 SPF) Compression mode : Lossy Delay relative to video : 1 s 20 ms Stream size : 463 MiB (5%) Title : QAAC VBR Q127 [naiyas] Language : Japanese Default : No Forced : No Text #1 ID : 4 Format : ASS Codec ID : S_TEXT/ASS Codec ID/Info : Advanced Sub Station Alpha Duration : 1 h 44 min Bit rate : 70 b/s Count of elements : 984 Compression mode : Lossless Stream size : 54.2 KiB (0%) Title : USBD based [Restyled - naiyas][Japanese based] Language : English Default : Yes Forced : No Text #2 ID : 5 Format : PGS Muxing mode : zlib Codec ID : S_HDMV/PGS Codec ID/Info : Picture based subtitle format used on BDs/HD-DVDs Duration : 1 h 44 min Bit rate : 21.6 kb/s Count of elements : 1751 Stream size : 16.1 MiB (0%) Title : Full Subtitle [Japanese based][USBD] Language : English Default : No Forced : No Menu 00:00:00.000 : en:00:00:00.000 00:02:25.687 : en:00:02:25.687 00:06:28.388 : en:00:06:28.388 00:09:04.544 : en:00:09:04.544 00:14:22.070 : en:00:14:22.070 00:18:45.124 : en:00:18:45.124 00:21:12.021 : en:00:21:12.021 00:23:23.235 : en:00:23:23.235 00:26:54.613 : en:00:26:54.613 00:28:16.445 : en:00:28:16.445 00:33:17.871 : en:00:33:17.871 00:36:38.196 : en:00:36:38.196 00:39:59.522 : en:00:39:59.522 00:43:49.335 : en:00:43:49.335 00:46:21.487 : en:00:46:21.487 00:50:53.425 : en:00:50:53.425 00:54:14.251 : en:00:54:14.251 00:55:37.626 : en:00:55:37.626 00:57:22.439 : en:00:57:22.439 01:00:30.752 : en:01:00:30.752 01:02:21.655 : en:01:02:21.655 01:04:09.721 : en:01:04:09.721 01:07:52.068 : en:01:07:52.068 01:09:23.576 : en:01:09:23.576 01:12:29.220 : en:01:12:29.220 01:17:11.252 : en:01:17:11.252 01:21:32.429 : en:01:21:32.429 01:23:38.013 : en:01:23:38.013 01:27:15.230 : en:01:27:15.230 01:28:58.625 : en:01:28:58.625 01:31:44.332 : en:01:31:44.332 01:33:07.540 : en:01:33:07.540 01:34:15.859 : en:01:34:15.859 01:36:05.969 : en:01:36:05.969 01:37:59.916 : en:01:37:59.916 01:39:10.945 : en:01:39:10.945 01:40:49.335 : en:01:40:49.335 01:41:45.099 : en:01:41:45.099 01:44:41.775 : en:01:44:41.775

File list

  • [naiyas] Fate Stay Night - Unlimited Blade Works Movie [BD 1080P HEVC10 QAACx2 Dual Audio]
    • CDs
      • OST
        • BK
          • 01.jpg (371.0 KiB)
          • 02.jpg (418.2 KiB)
          • 03.jpg (336.2 KiB)
          • 04.jpg (336.4 KiB)
          • 05.jpg (382.2 KiB)
          • 06.jpg (335.6 KiB)
          • 07.jpg (395.8 KiB)
          • 08.jpg (1002.3 KiB)
        • 川井憲次 - 劇場版Fate/stay night UNLIMITED BLADE WORKS ORIGINAL SOUND TRACK.cue (1.9 KiB)
        • 川井憲次 - 劇場版Fate/stay night UNLIMITED BLADE WORKS ORIGINAL SOUND TRACK.tak (278.4 MiB)
      • 主題歌 Voice~辿り着く場所~
        • BK
          • 101.jpg (607.7 KiB)
          • 102.jpg (438.1 KiB)
          • 103.jpg (918.7 KiB)
          • 104.jpg (678.5 KiB)
          • 105.jpg (591.9 KiB)
          • 106.jpg (789.5 KiB)
          • 107.jpg (340.7 KiB)
          • 108.jpg (511.7 KiB)
          • 109.jpg (1.3 MiB)
        • Voice~辿り着く場所~.LOG (1.1 KiB)
        • Voice~辿り着く場所~.cue (801 Bytes)
        • Voice~辿り着く場所~.tak (121.9 MiB)
    • Scans
      • 01.jpg (3.1 MiB)
      • 02.jpg (1.1 MiB)
      • 03.jpg (2.7 MiB)
      • 04.jpg (1.0 MiB)
      • 05.jpg (954.9 KiB)
      • 06.jpg (4.2 MiB)
      • 07.jpg (1.1 MiB)
      • 08.jpg (4.9 MiB)
      • 09.jpg (872.8 KiB)
      • 10.jpg (1.1 MiB)
      • 11.jpg (4.2 MiB)
      • 12.jpg (4.9 MiB)
      • 13.jpg (6.1 MiB)
      • 14.jpg (5.8 MiB)
      • 15.jpg (5.5 MiB)
      • 16.jpg (4.9 MiB)
      • 17.jpg (4.8 MiB)
      • 18.jpg (5.6 MiB)
      • 19.jpg (5.6 MiB)
      • 20.jpg (5.6 MiB)
      • 21.jpg (5.9 MiB)
      • 22.jpg (5.9 MiB)
      • 23.jpg (5.7 MiB)
      • 24.jpg (5.4 MiB)
      • 25.jpg (5.9 MiB)
      • 26.jpg (6.2 MiB)
      • 27.jpg (2.4 MiB)
      • 28.jpg (9.6 MiB)
      • 29.jpg (3.1 MiB)
      • 30.jpg (4.7 MiB)
      • 31.jpg (4.3 MiB)
      • 32.jpg (2.5 MiB)
      • ソッフマップ予約特典テレカ.jpg (914.2 KiB)
    • [naiyas] Fate Stay Night - Unlimited Blade Works Movie [BD 1080P HEVC10 QAACx2 Dual Audio].mkv (8.7 GiB)
thanks a lot for this :)

naiyas (uploader)

User
@balchal you're welcome