[naiyas] Fate Stay Night - Unlimited Blade Works S1 & S2 + Special | Extras [BD 1080P HEVC10 QAACx2 Dual Audio]

Category:
Date:
2020-09-29 09:06 UTC
Submitter:
Seeders:
30
Information:
[naiyas] https://discord.gg/7RXgKK
Leechers:
5
File size:
25.5 GiB
Completed:
1057
Info hash:
794fb8b19804eed4d5f899a1cf7335b9571c11ae
***English Audio Source:*** [***USBD***](https://nyaa.si/view/899122) ***Video & Japanese Audio Source:*** [***VCB-Studio***](https://nyaa.si/view/752635) ***Subs source:*** [***AOmundson***](https://nyaa.si/view/1086316) --- ##### ***All audio are encoded in [QAAC VBR Q127] to ensure the quality*** ---- ##### ***Fate Series list:*** [_**[naiyas] Fate Stay Night - Unlimited Blade Works Movie [BD 1080P HEVC10 QAACx2 Dual Audio]**_](https://nyaa.si/view/1284990) --- #### **Screenshots:** ![alt text](https://i.slow.pics/0Q8Iv2e1.png) ![alt text](https://i.slow.pics/RV1kJgTg.png) ![alt text](https://i.slow.pics/qVt3HtWS.png) ![alt text](https://i.slow.pics/ipB5Hqr1.png) ![alt text](https://i.slow.pics/mQhiMwA1.png) ----- **General info:** ``` Unique ID : 89490766367903850962707627884308782746 (0x43534B6F745A9854C382AC0AF96ADE9A) Complete name : E:\Anime Series\[naiyas] Fate Stay Night - Unlimited Blade Works (TV) [BD 1080P HEVC10 QAACx2 Dual Audio]\[naiyas] Fate Stay Night - Unlimited Blade Works (TV) - 00.mkv Format : Matroska Format version : Version 4 / Version 2 File size : 1.12 GiB Duration : 50 min 38 s Overall bit rate : 3 169 kb/s Movie name : [naiyas] Fate/Stay Night: Unlimited Blade Works (TV) - 00 Encoded date : UTC 2020-09-27 08:33:18 Writing application : mkvmerge v50.0.0 ('Awakenings') 64-bit Writing library : libebml v1.4.0 + libmatroska v1.6.2 Attachments : FOT-DotGothic16Std-M-FSN.otf / FOT-Matisse Pro Toaru B.ttf / FOT-Matisse Pro Toaru EB.ttf / IwaNGNewsPro-Db-CP.ttf / IwaNGoPro-Bd-CP.ttf / IwaNGoPro-Md-AW.ttf / IwaRGoPro-Db-Toaru.ttf / KozMinPr6N-Bold.otf / KozMinPr6N-Bold.ttf / KozMinPr6N-Heavy.otf / KozMinPR6N-Heavy.ttf / Kozuka Mincho Pr6N B.ttf / LEHN015.TTF / Profile Medium.otf / Profile-MediumItalic.otf / Profile-Regular.otf / ThrowMyHandsUpInTheAir-CP.ttf / DFPMaruGothic-SB-CP.ttf / DFPMaruGothic-W9-CP.ttf / FOT-ChiaroStd-B-EN.otf / FOT-MatissePro-B-Toaru.ttf / FOT-MatissePro-EB-Toaru.ttf / Profile-Medium.otf / Profile-MediumItalic.otf Video ID : 1 Format : HEVC Format/Info : High Efficiency Video Coding Format profile : Main 10@L5@Main Codec ID : V_MPEGH/ISO/HEVC Duration : 50 min 38 s Bit rate : 2 556 kb/s Width : 1 920 pixels Height : 1 080 pixels Display aspect ratio : 16:9 Frame rate mode : Constant Frame rate : 23.976 (24000/1001) FPS Color space : YUV Chroma subsampling : 4:2:0 Bit depth : 10 bits Bits/(Pixel*Frame) : 0.051 Stream size : 926 MiB (81%) Language : Japanese Default : Yes Forced : No Audio #1 ID : 2 Format : AAC LC Format/Info : Advanced Audio Codec Low Complexity Codec ID : A_AAC-2 Duration : 50 min 38 s Bit rate : 250 kb/s Channel(s) : 2 channels Channel layout : L R Sampling rate : 48.0 kHz Frame rate : 46.875 FPS (1024 SPF) Compression mode : Lossy Delay relative to video : 20 ms Stream size : 90.5 MiB (8%) Title : QAAC VBR Q127 [naiyas] Language : English Default : Yes Forced : No Audio #2 ID : 3 Format : AAC LC Format/Info : Advanced Audio Codec Low Complexity Codec ID : A_AAC-2 Duration : 50 min 38 s Bit rate : 249 kb/s Channel(s) : 2 channels Channel layout : L R Sampling rate : 48.0 kHz Frame rate : 46.875 FPS (1024 SPF) Compression mode : Lossy Delay relative to video : 20 ms Stream size : 90.1 MiB (8%) Title : QAAC VBR Q127 [naiyas] Language : Japanese Default : No Forced : No Text #1 ID : 4 Format : ASS Codec ID : S_TEXT/ASS Codec ID/Info : Advanced Sub Station Alpha Duration : 48 min 29 s Bit rate : 496 b/s Count of elements : 1174 Compression mode : Lossless Stream size : 176 KiB (0%) Title : Signs/Songs Language : English Default : No Forced : No Text #2 ID : 5 Format : ASS Codec ID : S_TEXT/ASS Codec ID/Info : Advanced Sub Station Alpha Duration : 49 min 49 s Bit rate : 596 b/s Count of elements : 1844 Compression mode : Lossless Stream size : 218 KiB (0%) Title : Full Subtitle [Japanese based] Language : English Default : Yes Forced : No Menu 00:00:00.000 : en:Chapter 01 00:02:07.001 : en:Chapter 02 00:06:09.911 : en:Chapter 03 00:10:17.325 : en:Chapter 04 00:11:25.976 : en:Chapter 05 00:17:21.248 : en:Chapter 06 00:21:28.370 : en:Chapter 07 00:23:50.011 : en:Chapter 08 00:26:02.769 : en:Chapter 09 00:29:34.981 : en:Chapter 10 00:32:50.551 : en:Chapter 11 00:37:39.799 : en:Chapter 12 00:39:21.275 : en:Chapter 13 00:43:31.358 : en:Chapter 14 00:47:52.828 : en:Chapter 15 00:50:22.769 : en:Chapter 16 00:50:38.785 : en:Chapter 17

File list

  • [naiyas] Fate Stay Night - Unlimited Blade Works (TV) [BD 1080P HEVC10 QAACx2 Dual Audio]
    • CDs
    • Extras
      • [naiyas] Fate Stay Night Unlimited Blade Works [NCED EP01].mkv (53.1 MiB)
      • [naiyas] Fate Stay Night Unlimited Blade Works [NCED EP12].mkv (224.5 MiB)
      • [naiyas] Fate Stay Night Unlimited Blade Works [NCED EP15].mkv (67.7 MiB)
      • [naiyas] Fate Stay Night Unlimited Blade Works [NCED EP25].mkv (41.6 MiB)
      • [naiyas] Fate Stay Night Unlimited Blade Works [NCED02].mkv (70.2 MiB)
      • [naiyas] Fate Stay Night Unlimited Blade Works [NCOP EP00].mkv (74.0 MiB)
      • [naiyas] Fate Stay Night Unlimited Blade Works [NCOP01].mkv (104.2 MiB)
      • [naiyas] Fate Stay Night Unlimited Blade Works [NCOP02].mkv (107.8 MiB)
    • [naiyas] Fate Stay Night - Unlimited Blade Works (TV) - 00.mkv (1.1 GiB)
    • [naiyas] Fate Stay Night - Unlimited Blade Works (TV) - 01.mkv (1.2 GiB)
    • [naiyas] Fate Stay Night - Unlimited Blade Works (TV) - 02.mkv (605.1 MiB)
    • [naiyas] Fate Stay Night - Unlimited Blade Works (TV) - 03.mkv (977.5 MiB)
    • [naiyas] Fate Stay Night - Unlimited Blade Works (TV) - 04.mkv (552.0 MiB)
    • [naiyas] Fate Stay Night - Unlimited Blade Works (TV) - 05.mkv (553.5 MiB)
    • [naiyas] Fate Stay Night - Unlimited Blade Works (TV) - 06.mkv (637.9 MiB)
    • [naiyas] Fate Stay Night - Unlimited Blade Works (TV) - 07.mkv (851.8 MiB)
    • [naiyas] Fate Stay Night - Unlimited Blade Works (TV) - 08.mkv (688.0 MiB)
    • [naiyas] Fate Stay Night - Unlimited Blade Works (TV) - 09.mkv (468.5 MiB)
    • [naiyas] Fate Stay Night - Unlimited Blade Works (TV) - 10.mkv (723.7 MiB)
    • [naiyas] Fate Stay Night - Unlimited Blade Works (TV) - 11.mkv (476.3 MiB)
    • [naiyas] Fate Stay Night - Unlimited Blade Works (TV) - 12.mkv (1.2 GiB)
    • [naiyas] Fate Stay Night - Unlimited Blade Works (TV) - 13.mkv (703.2 MiB)
    • [naiyas] Fate Stay Night - Unlimited Blade Works (TV) - 14.mkv (695.8 MiB)
    • [naiyas] Fate Stay Night - Unlimited Blade Works (TV) - 15.mkv (878.9 MiB)
    • [naiyas] Fate Stay Night - Unlimited Blade Works (TV) - 16.mkv (582.1 MiB)
    • [naiyas] Fate Stay Night - Unlimited Blade Works (TV) - 17.mkv (971.5 MiB)
    • [naiyas] Fate Stay Night - Unlimited Blade Works (TV) - 18.mkv (904.5 MiB)
    • [naiyas] Fate Stay Night - Unlimited Blade Works (TV) - 19.mkv (565.5 MiB)
    • [naiyas] Fate Stay Night - Unlimited Blade Works (TV) - 20.mkv (840.4 MiB)
    • [naiyas] Fate Stay Night - Unlimited Blade Works (TV) - 21.mkv (911.7 MiB)
    • [naiyas] Fate Stay Night - Unlimited Blade Works (TV) - 22.mkv (498.0 MiB)
    • [naiyas] Fate Stay Night - Unlimited Blade Works (TV) - 23.mkv (845.4 MiB)
    • [naiyas] Fate Stay Night - Unlimited Blade Works (TV) - 24.mkv (1.0 GiB)
    • [naiyas] Fate Stay Night - Unlimited Blade Works (TV) - 25.mkv (484.9 MiB)
    • [naiyas] Fate Stay Night - Unlimited Blade Works (TV) - Sunny Day.mkv (205.8 MiB)
unlimited blade works movie dual audio .. when? plzz let me know ....
Thanks Kametsu.

naiyas (uploader)

User
@balchal >unlimited blade works movie dual audio … when? plzz let me know … Today

naiyas (uploader)

User
https://nyaa.si/view/1284990 **[naiyas] Fate Stay Night - Unlimited Blade Works Movie [BD 1080P HEVC10 QAACx2 Dual Audio]**
is it both season?

naiyas (uploader)

User
@metakbir yeah S1 & S2