[Eclatax] Made in Abyss the Movie: Dawn of the Deep Soul [BDRip 1080p 10-bit Flacx2 x264]

Category:
Date:
2020-09-24 22:45 UTC
Submitter:
Anonymous
Seeders:
10
Information:
Leechers:
2
File size:
11.9 GiB
Completed:
622
Info hash:
3c8edf8f5c78a5616c0073ce6c215c17cbf98043
No filter No sub Video Stream size : 10.2 GiB (86%) Audio 2.0 Jap Stream size : 505 MiB (4%) Audio 5.1 Jap Stream size : 1.21 GiB (10%)

File list

  • [Eclatax] Made in Abyss the Movie- Dawn of the Deep Soul [BDRip 1080p 10-bit Flacx2 x264].mkv (11.9 GiB)
Hey, English dub?
absolute state of nyaa.si commenters
The existing subs need to be retimed as they become out of sync around 10 minutes in.
I swear to god if I see anyone watching shitty encodes with terrible subs instead of waiting a few days for [Asenshi-MTBB]...
Can you bring me arguments that my encoding is crap? I don't remember that [Asenshi-MTBB] has a monopoly on good taste. But you do. And as far as English subtitles are concerned, my release doesn't contain any. It's for the mux. In any case nice mentality, if you don't like my release in this case, don't download it. If the encoding is bad, bring me arguments that I can improve and not denigrate every time someone tries to propose content.
what is Asenshi/MTBB’s release ??
Thanks for adding no filters version of this !! Real Raws are the best !
BD rip and yet no subs.. what?
We made an spanish sub for this version. Thanks for the raw Subtitulo en español para esta versión. Gracias por el raw. https://nyaa.si/view/1284488
Gracias por el crudo*