[naiyas] Arifureta - From Commonplace to World's Strongest [BD1080P HEVC10 QAAC Dual Audio]v2

Category:
Date:
2020-09-23 15:20 UTC
Submitter:
Seeders:
5
Information:
[naiyas] https://discord.gg/7RXgKK
Leechers:
2
File size:
21.1 GiB
Completed:
163
Info hash:
dbd7adc8ab55c51b2fe091c0ee64b6baf7685f2e
![alt text](https://i.slow.pics/3ynGCHL7.png) | Title | Information | | ------------- |:-------------:| -----:| | Anime | **Arifureta - From Commonplace to World's Strongest** | | Type | **BD Batch** | | Episodes | **1 - 13 + OVA's** | | Resolution | **1920x1080** | | Video | **H.265 10bit** | | Audio | **qaac vbr q127** | | Audio encoded by: | **naiyas** | | Language Audio | **English, Japanese** | | Subtitles | **Signs & Song / Full English** | | Discord | [**naiyas**](https://discord.gg/7RXgKK) | | Want to help me? | **Seed as much as you can** πŸ˜™| --- ##### ***Synopsis: The series follows Hajime Nagumo, who is transported to another world with the rest of his class but receives only the most average of magical abilities, forcing him to fight to improve himself.*** --- >**Question:** ***What is the difference of this from my previous release*** **?** >**Answer:** **Better** ***video*** **and** ***audio*** **quality** --- #### **Screenshots:** ![alt text](https://i.slow.pics/13kQbBLL.png) ![alt text](https://i.slow.pics/Ll5Zocq6.png) ![alt text](https://i.slow.pics/usHMnJq6.png) ![alt text](https://i.slow.pics/P1KiL1mR.png) ![alt text](https://i.slow.pics/UGXcTqEz.png) ![alt text](https://i.slow.pics/DX9rOgWB.png) --- ##### **General Media Info:** ``` Unique ID : 231117641659295557363133441135600315131 (0xADDFA38030BB3F224CB7596F39CDAAFB) Complete name : Arifureta - From Commonplace to World's Strongest - 01 - The Monster of the Abyss.mkv Format : Matroska Format version : Version 4 / Version 2 File size : 1.37 GiB Duration : 23 min 37 s Overall bit rate : 8 303 kb/s Encoded date : UTC 2020-09-23 11:39:43 Writing application : mkvmerge v50.0.0 ('Awakenings') 64-bit Writing library : libebml v1.4.0 + libmatroska v1.6.2 / Lavf58.29.100 Attachments : a-otf-musashistd-regular.otf / meiryo ui w53 bold.ttf / OpenSans-Semibold.ttf / sudbury_book.ttf / switch system.ttf / tt0818m.ttf Video ID : 1 Format : HEVC Format/Info : High Efficiency Video Coding Format profile : Main 10@L5@Main Codec ID : V_MPEGH/ISO/HEVC Duration : 23 min 37 s Bit rate : 7 702 kb/s Width : 1 920 pixels Height : 1 080 pixels Display aspect ratio : 16:9 Frame rate mode : Constant Frame rate : 23.976 (24000/1001) FPS Color space : YUV Chroma subsampling : 4:2:0 Bit depth : 10 bits Bits/(Pixel*Frame) : 0.155 Stream size : 1.27 GiB (93%) Writing library : x265 3.2.1+1-b5c86a64bbbe:[Windows][GCC 9.2.0][64 bit] 10bit Encoding settings : cpuid=1111039 / frame-threads=4 / numa-pools=16 / wpp / no-pmode / no-pme / no-psnr / no-ssim / log-level=2 / input-csp=1 / input-res=1920x1080 / interlace=0 / total-frames=0 / level-idc=0 / high-tier=1 / uhd-bd=0 / ref=6 / no-allow-non-conformance / no-repeat-headers / annexb / no-aud / no-hrd / info / hash=0 / no-temporal-layers / open-gop / min-keyint=24 / keyint=240 / gop-lookahead=0 / bframes=16 / b-adapt=2 / b-pyramid / bframe-bias=0 / rc-lookahead=50 / lookahead-slices=4 / scenecut=40 / radl=0 / no-splice / no-intra-refresh / ctu=32 / min-cu-size=8 / no-rect / no-amp / max-tu-size=32 / tu-inter-depth=1 / tu-intra-depth=3 / limit-tu=0 / rdoq-level=2 / dynamic-rd=0.00 / no-ssim-rd / signhide / tskip / nr-intra=0 / nr-inter=0 / no-constrained-intra / no-strong-intra-smoothing / max-merge=3 / limit-refs=3 / limit-modes / me=3 / subme=3 / merange=57 / temporal-mvp / no-hme / weightp / no-weightb / no-analyze-src-pics / deblock=1:1 / no-sao / no-sao-non-deblock / rd=4 / selective-sao=0 / no-early-skip / rskip / no-fast-intra / tskip-fast / no-cu-lossless / no-b-intra / no-splitrd-skip / rdpenalty=0 / psy-rd=0.80 / psy-rdoq=2.00 / no-rd-refine / no-lossless / cbqpoffs=0 / crqpoffs=0 / rc=crf / crf=18.0 / qcomp=0.60 / qpstep=4 / stats-write=0 / stats-read=0 / ipratio=1.40 / pbratio=1.30 / aq-mode=3 / aq-strength=1.25 / cutree / zone-count=0 / no-strict-cbr / qg-size=32 / no-rc-grain / qpmax=69 / qpmin=0 / no-const-vbv / sar=1 / overscan=0 / videoformat=5 / range=0 / colorprim=1 / transfer=1 / colormatrix=1 / chromaloc=0 / display-window=0 / cll=0,0 / min-luma=0 / max-luma=1023 / log2-max-poc-lsb=8 / vui-timing-info / vui-hrd-info / slices=1 / no-opt-qp-pps / no-opt-ref-list-length-pps / no-multi-pass-opt-rps / scenecut-bias=0.05 / no-opt-cu-delta-qp / no-aq-motion / no-hdr / no-hdr-opt / no-dhdr10-opt / no-idr-recovery-sei / analysis-reuse-level=5 / scale-factor=0 / refine-intra=0 / refine-inter=0 / refine-mv=1 / refine-ctu-distortion=0 / no-limit-sao / ctu-info=0 / no-lowpass-dct / refine-analysis-type=0 / copy-pic=1 / max-ausize-factor=1.0 / no-dynamic-refine / no-single-sei / no-hevc-aq / no-svt / no-field / qp-adaptation-range=1.00 Language : Japanese Default : Yes Forced : No Color range : Limited Color primaries : BT.709 Transfer characteristics : BT.709 Matrix coefficients : BT.709 Audio #1 ID : 2 Format : AAC LC Format/Info : Advanced Audio Codec Low Complexity Codec ID : A_AAC-2 Duration : 23 min 37 s Bit rate : 226 kb/s Channel(s) : 2 channels Channel layout : L R Sampling rate : 48.0 kHz Frame rate : 46.875 FPS (1024 SPF) Compression mode : Lossy Stream size : 38.2 MiB (3%) Title : English 2.0 ch Language : English Default : Yes Forced : No Audio #2 ID : 3 Format : AAC LC Format/Info : Advanced Audio Codec Low Complexity Codec ID : A_AAC-2 Duration : 23 min 37 s Bit rate : 249 kb/s Channel(s) : 2 channels Channel layout : L R Sampling rate : 48.0 kHz Frame rate : 46.875 FPS (1024 SPF) Compression mode : Lossy Stream size : 42.1 MiB (3%) Title : Japanese 2.0 ch Language : Japanese Default : No Forced : No Text #1 ID : 4 Format : ASS Codec ID : S_TEXT/ASS Codec ID/Info : Advanced Sub Station Alpha Duration : 22 min 55 s Bit rate : 4 811 b/s Count of elements : 7052 Compression mode : Lossless Stream size : 808 KiB (0%) Title : Signs / Songs Language : English Default : No Forced : No Text #2 ID : 5 Format : ASS Codec ID : S_TEXT/ASS Codec ID/Info : Advanced Sub Station Alpha Duration : 23 min 1 s Bit rate : 4 862 b/s Count of elements : 7275 Compression mode : Lossless Stream size : 820 KiB (0%) Title : Full Subs Language : Japanese Default : Yes Forced : No Menu 00:00:01.007 : en:Intro 00:00:22.987 : en:OP 00:01:53.036 : en:Part A 00:10:44.108 : en:Intermission 00:10:49.113 : en:Part B 00:21:59.074 : en:ED 00:23:29.080 : en:Preview

File list

  • Arifureta - From Commonplace to World's Strongest
    • Extras
      • Bonus CD
        • 01. ι‡‘θ‰²γ«ζŸ“γΎγ‚‹ε€œζ˜Žγ‘.flac (31.3 MiB)
        • Special CD2.cue (512 Bytes)
        • Special CD2.flac (58.8 MiB)
        • Special CD3.cue (645 Bytes)
        • Special CD3.flac (86.9 MiB)
      • Arifureta [SP01] NCOP - 01 (BD 1920x1080 x265-10Bit Flac).mkv (88.5 MiB)
      • Arifureta [SP01] NCOP - 02 (BD 1920x1080 x265-10Bit Flac).mkv (85.8 MiB)
      • Arifureta [SP02] NCED (BD 1920x1080 x265-10Bit Flac).mkv (53.2 MiB)
      • Arifureta [SP03] PV & CM Collection (BD 1920x1080 x265-10Bit Flac).mkv (621.5 MiB)
    • OVA's
      • Arifureta From Commonplace to World's Strongest - OVA 01 (BD1080P HEVC10 FLAC).mkv (398.8 MiB)
      • Arifureta From Commonplace to World's Strongest - OVA 02 (BD1080P HEVC10 FLAC).mkv (389.5 MiB)
    • Arifureta - From Commonplace to World's Strongest - 01 - The Monster of the Abyss.mkv (1.4 GiB)
    • Arifureta - From Commonplace to World's Strongest - 02 - Pandora's Box.mkv (1.4 GiB)
    • Arifureta - From Commonplace to World's Strongest - 03 - The Golden Vampire Princess.mkv (1.5 GiB)
    • Arifureta - From Commonplace to World's Strongest - 04 - Guardian of the Depths.mkv (1.7 GiB)
    • Arifureta - From Commonplace to World's Strongest - 05 - The Maverick's Lair.mkv (1.3 GiB)
    • Arifureta - From Commonplace to World's Strongest - 06 - Worthless Rabbit.mkv (1.5 GiB)
    • Arifureta - From Commonplace to World's Strongest - 07 - Great Reisen Labyrinth.mkv (1.3 GiB)
    • Arifureta - From Commonplace to World's Strongest - 08 - Reunion with the Past.mkv (1.3 GiB)
    • Arifureta - From Commonplace to World's Strongest - 09 - Dragon Slayer.mkv (1.4 GiB)
    • Arifureta - From Commonplace to World's Strongest - 10 - The Goddess' Sword.mkv (1.5 GiB)
    • Arifureta - From Commonplace to World's Strongest - 11 - The Monsters' Day Off.mkv (1.3 GiB)
    • Arifureta - From Commonplace to World's Strongest - 12 - A Looming Shadow.mkv (1.2 GiB)
    • Arifureta - From Commonplace to World's Strongest - 13 - The Best at Being the Worst.mkv (1.2 GiB)
    • Arifureta - From Commonplace to World's Strongest - 5.5 - Omnibus - Great Orcus Labyrinth.mkv (1.5 GiB)
is the ova's also dubbed?
Pretty sure it is. Uploader only watches the dub.

naiyas (uploader)

User
@Nokou there's no dub release for ova's so it's sub only
@Ingenioussubs I also prefer watching dubs if available. @naiyas Thanks for the info.

naiyas (uploader)

User
@Nokou πŸ‘When dub release i'm gonna update those OVA's