[Hoshi-Raws]Bang Dream 8th Live Viewing Day3 Special Live Summerly Tone[1080p][WEB-RIP][AAC][H.264]

Category:
Date:
2020-09-22 22:44 UTC
Submitter:
Seeders:
11
Information:
No information.
Leechers:
0
File size:
6.8 GiB
Completed:
1910
Info hash:
b80f2f22f60e0cfb52ce248a9689557e4bd3652f
Bang.Dream.8th.Live.Viewing.Day3.Special Live.Summerly.Tone.1080p.WEB-RIP.AAC.H.264-Hoshi WEBRip by Hoshi-RAWS. Bought & dump from zaiko source (Vimeo). Notice: We cut 10 minutes preparation for live streaming in this WEBRip version. If you don't like these tweaks, download other WEBRip sources instead. General Format : MPEG-4 Format profile : Base Media Codec ID : isom (isom/iso2/avc1/mp41) File size : 6.76 GiB Duration : 3 h 0 min Overall bit rate : 5 365 kb/s Video ID : 1 Format : AVC Format profile : High@L4 Format settings : CABAC / 3 Ref Frames Format settings, CABAC : Yes Format settings, Reference fra : 3 frames Codec ID : avc1 Duration : 3 h 0 min Bit rate mode : Constant Bit rate : 5 100 kb/s Width : 1 920 pixels Height : 1 080 pixels Display aspect ratio : 16:9 Frame rate mode : Constant Frame rate : 30.000 FPS Color space : YUV Chroma subsampling : 4:2:0 Bit depth : 8 bits Scan type : Progressive Bits/(Pixel*Frame) : 0.082 Stream size : 6.42 GiB (95%) Codec configuration box : avcC Audio ID : 2 Format : AAC Main Format/Info : Advanced Audio Codec Codec ID : mp4a-40-1 Duration : 3 h 0 min Bit rate mode : Constant Bit rate : 257 kb/s Channel(s) : 2 channels Channel layout : L R Sampling rate : 48.0 kHz Frame rate : 46.875 FPS (1024 SPF) Compression mode : Lossy Stream size : 331 MiB (5%)

File list

You are the best man
Am I the only one that can't hear anything or is it because I have low storage on my pc?
@0takoz no sound issues here. Have you checked your sound system? Is the file fully downloaded? I can't think of any reason why "low storage" would prevent sound from playing on a fully completed file with working speakers.
@himeno Thanks for the suggestions! I got it to work by opening it in VLC media player. Not sure what's wrong with my default mp4 player but oh well
Thank you!! (つ≧▽≦)つ
morfonica 1st live 「cantabile」Is this difficult?
can you do morfonica 1st live?

hoshi_raws (uploader)

User
Well, I didn't buy the ticket for Morfonica...
ohh, but thank you anyways
can i ask? did you buy the poppin party ticket?
too bad u didn't buy ticket for morfonica :( BUT , thanks for this 8th live . thanks for your hard work. keep healthy and stay safe :D
have you bought breakthrough's ticket? if so, can you please upload it? plss. or do you know someone who uploaded it already? I wanna buy a ticket but can't cuz of school and financial problems in this time of pandemic. pls leave any links as to where I can watch breakthrough and if possible cantabile too! tnx!!!