[neoHEVC] The Pilot's Love Song [BD 1080p x265 HEVC AAC] Toaru Hikuushi e no Koiuta

Category:
Date:
2020-09-21 12:12 UTC
Submitter:
Seeders:
4
Information:
Leechers:
0
File size:
3.1 GiB
Completed:
403
Info hash:
63724b1d401f4c2be05e1a8115a869f86231c18c
![](https://i.imgur.com/2dVqnvx.png) *Join **[Discord](https://discord.gg/KYKYZUh)** for Current Projects, Encode-Requests and Seed-Request in case of no available seeds.* **The Pilot's Love Song / Toaru Hikuushi e no Koiuta** *with `Jpn Dub` and `Eng Subs` in `BD 1080p HEVC`* Reencode of [BlurayDesuYo] (x264 AVC FLAC) to (x265 HEVC AAC). ![](https://i.imgur.com/4iegWLL.png) **[Trailer](https://www.youtube.com/watch?v=t2myFtKWXCE)** ![](https://i.imgur.com/3UxGuWB.png) ![](https://i.imgur.com/ZCtSawZ.png) **[MyAnimeList](https://myanimelist.net/anime/19117/Toaru_Hikuushi_e_no_Koiuta)** --- **Synopsis** In order to uncover the "end of the sky," as spoken of in ancient mythology, Kal-el Albus is sent to Isla, an island in the sky. There he attends Cadoques High's Aerial Division, where he enjoys a carefree life with his schoolmates. That is...until a surprise attack by the air tribe drags Isla into a bloody war. ![](https://i.imgur.com/9LBHmoq.png) --- **Comparison** (avc: source, hevc: encode) *Open links, toggle with mouseclick and check title.* [![](https://i.imgur.com/IsY6GzO.png)](https://slow.pics/c/0O3uOlaM) [![](https://i.imgur.com/EeS6AfJ.png)](https://slow.pics/c/YWs0WArY) [![](https://i.imgur.com/CaqI9Go.png)](https://slow.pics/c/DMvSh9Bn) --- **Source** ?️ Video, Audio and Subs: [BlurayDesuYo] https://nyaa.si/view/838968 ? *Subtitles Info: - Format `ASS`* --- **Media Info** ``` General Unique ID : 212289997082432955126466366319614855365 (0x9FB590F448F75989927B009B81F188C5) Complete name : The Pilot's Love Song - S01E01.mkv Format : Matroska Format version : Version 4 File size : 306 MiB Duration : 23 min 39 s Overall bit rate : 1 806 kb/s Movie name : The Pilot's Love Song - S01E01 Encoded date : UTC 2020-09-20 23:52:24 Writing application : mkvmerge v47.0.0 ('Black Flag') 64-bit Writing library : libebml v1.3.10 + libmatroska v1.5.2 / Lavf58.29.100 Attachments : Marion.ttc / Lora-Bold.ttf / Angie-Bold.ttf / Angie-BoldItalic.ttf / Merienda-Regular.ttf / YELLS__.TTF / GOUDOS.TTF / MAIAN.TTF Video ID : 1 Format : HEVC Format/Info : High Efficiency Video Coding Format profile : Main 10@L4.1@High Codec ID : V_MPEGH/ISO/HEVC Duration : 23 min 39 s Bit rate : 1 505 kb/s Width : 1 920 pixels Height : 1 080 pixels Display aspect ratio : 16:9 Frame rate mode : Constant Frame rate : 23.976 (24000/1001) FPS Color space : YUV Chroma subsampling : 4:2:0 Bit depth : 10 bits Bits/(Pixel*Frame) : 0.030 Stream size : 255 MiB (83%) Writing library : x265 3.2.1+1-b5c86a64bbbe:[Windows][GCC 9.2.0][64 bit] 10bit Encoding settings : cpuid=1111039 / frame-threads=2 / numa-pools=4 / wpp / no-pmode / no-pme / no-psnr / no-ssim / log-level=2 / input-csp=1 / input-res=1920x1080 / interlace=0 / total-frames=0 / level-idc=41 / high-tier=1 / uhd-bd=0 / ref=5 / no-allow-non-conformance / no-repeat-headers / annexb / no-aud / no-hrd / info / hash=0 / no-temporal-layers / open-gop / min-keyint=24 / keyint=240 / gop-lookahead=0 / bframes=8 / b-adapt=2 / b-pyramid / bframe-bias=0 / rc-lookahead=25 / lookahead-slices=4 / scenecut=40 / radl=0 / no-splice / no-intra-refresh / ctu=64 / min-cu-size=8 / rect / no-amp / max-tu-size=32 / tu-inter-depth=1 / tu-intra-depth=1 / limit-tu=0 / rdoq-level=2 / dynamic-rd=0.00 / no-ssim-rd / signhide / no-tskip / nr-intra=0 / nr-inter=0 / no-constrained-intra / strong-intra-smoothing / max-merge=3 / limit-refs=3 / limit-modes / me=3 / subme=3 / merange=57 / temporal-mvp / no-hme / weightp / no-weightb / no-analyze-src-pics / deblock=0:0 / sao / no-sao-non-deblock / rd=4 / selective-sao=4 / no-early-skip / rskip / no-fast-intra / no-tskip-fast / no-cu-lossless / no-b-intra / no-splitrd-skip / rdpenalty=0 / psy-rd=0.00 / psy-rdoq=1.00 / no-rd-refine / no-lossless / cbqpoffs=0 / crqpoffs=0 / rc=crf / crf=21.0 / qcomp=0.60 / qpstep=4 / stats-write=0 / stats-read=0 / vbv-maxrate=50000 / vbv-bufsize=50000 / vbv-init=0.9 / crf-max=0.0 / crf-min=0.0 / ipratio=1.40 / pbratio=1.30 / aq-mode=3 / aq-strength=0.80 / cutree / zone-count=0 / no-strict-cbr / qg-size=32 / no-rc-grain / qpmax=69 / qpmin=0 / no-const-vbv / sar=1 / overscan=0 / videoformat=5 / range=0 / colorprim=1 / transfer=1 / colormatrix=1 / chromaloc=0 / display-window=0 / cll=0,0 / min-luma=0 / max-luma=1023 / log2-max-poc-lsb=8 / vui-timing-info / vui-hrd-info / slices=1 / no-opt-qp-pps / no-opt-ref-list-length-pps / no-multi-pass-opt-rps / scenecut-bias=0.05 / no-opt-cu-delta-qp / no-aq-motion / no-hdr / no-hdr-opt / no-dhdr10-opt / no-idr-recovery-sei / analysis-reuse-level=5 / scale-factor=0 / refine-intra=0 / refine-inter=0 / refine-mv=1 / refine-ctu-distortion=0 / no-limit-sao / ctu-info=0 / no-lowpass-dct / refine-analysis-type=0 / copy-pic=1 / max-ausize-factor=1.0 / no-dynamic-refine / no-single-sei / no-hevc-aq / no-svt / no-field / qp-adaptation-range=1.00 Default : Yes Forced : No Color range : Limited Color primaries : BT.709 Transfer characteristics : BT.709 Matrix coefficients : BT.709 Audio ID : 2 Format : AAC LC Format/Info : Advanced Audio Codec Low Complexity Codec ID : A_AAC-2 Duration : 23 min 39 s Bit rate : 210 kb/s Channel(s) : 2 channels Channel layout : L R Sampling rate : 48.0 kHz Frame rate : 46.875 FPS (1024 SPF) Compression mode : Lossy Delay relative to video : -43 ms Stream size : 35.6 MiB (12%) Title : Stereo - JPN (AAC) Language : Japanese Default : Yes Forced : No Text ID : 3 Format : ASS Codec ID : S_TEXT/ASS Codec ID/Info : Advanced Sub Station Alpha Duration : 22 min 17 s Bit rate : 78.8 kb/s Count of elements : 26933 Compression mode : Lossless Stream size : 12.6 MiB (4%) Title : Dialog - ENG (ASS) Language : English Default : No Forced : No Menu 00:00:00.000 : :Prologue 00:01:35.137 : :Opening 00:03:04.976 : :Part A 00:11:36.946 : :Part B 00:21:59.902 : :Ending 00:23:29.867 : :Preview ```

File list

  • [neoHEVC] The Pilot's Love Song [BD 1080p x265 HEVC AAC]
    • The Pilot's Love Song - S01E01.mkv (305.7 MiB)
    • The Pilot's Love Song - S01E02.mkv (221.3 MiB)
    • The Pilot's Love Song - S01E03.mkv (230.0 MiB)
    • The Pilot's Love Song - S01E04.mkv (215.9 MiB)
    • The Pilot's Love Song - S01E05.mkv (242.0 MiB)
    • The Pilot's Love Song - S01E06.mkv (222.4 MiB)
    • The Pilot's Love Song - S01E07.mkv (241.7 MiB)
    • The Pilot's Love Song - S01E08.mkv (256.3 MiB)
    • The Pilot's Love Song - S01E09.mkv (194.4 MiB)
    • The Pilot's Love Song - S01E10.mkv (273.8 MiB)
    • The Pilot's Love Song - S01E11.mkv (311.2 MiB)
    • The Pilot's Love Song - S01E12.mkv (269.0 MiB)
    • The Pilot's Love Song - S01E13.mkv (239.8 MiB)
Woah That was faster than I expected thank you very much... You're a godsend!

neoborn (uploader)

User
This reencoding business is not very hard. If I had to mux audio and subtitle streams with synchronization work then it takes some more time. But here the 'correct' subtitles and audio tracks were already present. My encoding skills are quite limited but thankfully with these BDRips I use as source, the original (more knowledgable) encoder applied necessary filtering already most of the time. All I am doing is shrinking while applying some simple settings tuning here or there and some testing on short clips until it looks alright to me and then mux/sync various streams I want in these files. My projects ran dry for the moment so that's why this is done already :>
I already downloaded BlurayDesuYo's it's great and good quality but I'm running out of space and can't hope to keep it so having smaller but decent works like yours is very much appreciated so thank you! :) I just love planes, airships and steampunk/Dieselpunk animes.