[Mysteria] Masamune-kun no Revenge+OVA (BD 1080p Hi10 FLAC)

Category:
Date:
2020-09-19 00:02 UTC
Submitter:
Seeders:
6
Information:
Leechers:
0
File size:
17.8 GiB
Completed:
159
Info hash:
a731cc084a2d9d912399ac8667648c7f5e7a77df
![alt text](https://image.tmdb.org/t/p/w780/o1e3RZhbQO6IemZUlNb4ywRBsRu.jpg) **Synopsis:** When Masamune Makabe was a child, he was rejected by a rich, beautiful girl named Aki Adagaki, who gave him the nickname ''Piggy'' for being overweight. Devastated, Masamune put great effort into working out to improve his appearance. Now a handsome yet narcissistic high school student, Masamune is determined to exact revenge—he will have Aki fall madly in love with him and ultimately reject her the next time they meet. To his surprise, Masamune discovers he has transferred into Aki's school. Setting his plan into motion, Masamune first begins to form a relationship with the ''Brutal Princess'' but, despite his efforts, fails miserably at his initial attempts. Shockingly, when Masamune finally progresses towards his vengeance, he receives a mysterious letter addressing him by his old nickname. Unless Masamune discovers the sender's identity, his plan is doomed before it even starts! **~ Can't remember where I got the OVA from, but I added TS to it, and made a few edits.** **Description:** Title: Masamune-kun no Revenge *Original Source: **[Beatrice-Raws](https://nyaa.si/view/965038)** *Video Format: x264 AVC 10bit mkv *Audio Codec: Japanese 2.0 **(FLAC-16)** *Subtitle Source: **DameDesuYo** *Duration: 24 minutes per episode *Subtitle: English *Resolution/Quality: 1920x1080 or 1080p HD *Genre: Comedy, Harem, Romance, School, Shounen *Age Rating: PG-13 **Screens:** ![alt text](https://i.imgur.com/MIKH45q.jpg) ![alt text](https://i.imgur.com/C4ts53A.jpg) ![alt text](https://i.imgur.com/j9QAdTf.jpg) **Media Info:** ``` General Unique ID : 277551007069644849448665495538328148064 (0xD0CE612AE9528A91D1F3FEB815481860) Complete name : C:\Users\Mysteria\Downloads\[Mysteria] Masamune-kun no Revenge+OVA (BD 1080p Hi10 FLAC)\[Mysteria] Masamune-kun no Revenge - S01E01 (BD 1080p Hi10 FLAC) [E65E36F4].mkv Format : Matroska Format version : Version 4 File size : 1.27 GiB Duration : 24 min 16 s Overall bit rate mode : Variable Overall bit rate : 7 506 kb/s Movie name : [Mysteria] Masamune-kun no Revenge - S01E01 (BD 1080p Hi10 FLAC) Encoded date : UTC 2020-09-18 22:23:08 Writing application : mkvmerge v50.0.0 ('Awakenings') 64-bit Writing library : libebml v1.4.0 + libmatroska v1.6.2 Attachments : AA_LINTEL.ttf / Arimo-Bold.ttf / AurulentSans-Bold.otf / Bolide-Regular.ttf / Conundrum FG_hun.ttf / Generis Sans Heavy Italic.ttf / Generis Sans Heavy.ttf / HZsC_Garfield.ttf / HZsC_MaskedMarvel.ttf / IwaOMinPro-Hv-Fate.ttf / Jacoby_Regular.ttf / JAPERS.TTF / PaperJohnnyEins-Regular.otf / SCRATCHMYBACK.TTF Video ID : 1 Format : AVC Format/Info : Advanced Video Codec Format profile : High 10@L5 Format settings : CABAC / 4 Ref Frames Format settings, CABAC : Yes Format settings, Reference frames : 4 frames Codec ID : V_MPEG4/ISO/AVC Duration : 24 min 16 s Bit rate : 6 735 kb/s Width : 1 920 pixels Height : 1 080 pixels Display aspect ratio : 16:9 Frame rate mode : Constant Frame rate : 23.976 (24000/1001) FPS Color space : YUV Chroma subsampling : 4:2:0 Bit depth : 10 bits Scan type : Progressive Bits/(Pixel*Frame) : 0.135 Stream size : 1.14 GiB (90%) Title : BDRip by Vladdrako & Jensen Writing library : x264 core 148 (DJATOM's build) Encoding settings : cabac=1 / ref=4 / deblock=1:1:-1 / analyse=0x3:0x113 / me=umh / subme=9 / psy=1 / fade_compensate=0.00 / psy_rd=1.00:0.00 / mixed_ref=1 / me_range=32 / chroma_me=1 / trellis=2 / 8x8dct=1 / cqm=0 / deadzone=21,11 / fast_pskip=1 / chroma_qp_offset=-2 / threads=34 / lookahead_threads=5 / sliced_threads=0 / nr=0 / decimate=1 / interlaced=0 / bluray_compat=0 / constrained_intra=0 / bframes=9 / b_pyramid=2 / b_adapt=2 / b_bias=0 / direct=1 / weightb=1 / open_gop=0 / weightp=2 / keyint=250 / keyint_min=23 / scenecut=40 / intra_refresh=0 / rc=crf / mbtree=0 / crf=15.0000 / qcomp=0.72 / qpmin=0 / qpmax=81 / qpstep=4 / ip_ratio=1.40 / pb_ratio=1.30 / aq=1:0.85 Language : Japanese Default : Yes Forced : No Color range : Limited Color primaries : BT.709 Transfer characteristics : BT.709 Matrix coefficients : BT.709 Audio ID : 2 Format : FLAC Format/Info : Free Lossless Audio Codec Codec ID : A_FLAC Duration : 24 min 16 s Bit rate mode : Variable Bit rate : 702 kb/s Channel(s) : 2 channels Channel layout : L R Sampling rate : 48.0 kHz Frame rate : 11.719 FPS (4096 SPF) Bit depth : 16 bits Compression mode : Lossless Stream size : 122 MiB (9%) Title : Japanese 2.0 FLAC Writing library : libFLAC 1.3.2 (UTC 2017-01-01) Language : Japanese Default : Yes Forced : No Text ID : 3 Format : ASS Codec ID : S_TEXT/ASS Codec ID/Info : Advanced Sub Station Alpha Duration : 23 min 13 s Bit rate : 51.4 kb/s Count of elements : 32048 Compression mode : Lossless Stream size : 8.53 MiB (1%) Title : Full Subtitles [DameDesuYo] Language : English Default : Yes Forced : No Menu 00:00:00.000 : :Prologue 00:05:49.015 : :Opening 00:07:18.980 : :Part A 00:10:42.058 : :Part B 00:22:11.038 : :Ending 00:23:41.044 : :Next Time ```

File list

  • [Mysteria] Masamune-kun no Revenge+OVA (BD 1080p Hi10 FLAC)
    • Creditless
      • Masamune-kun no Revenge-NCED [BEE5440B].mkv (60.7 MiB)
      • Masamune-kun no Revenge-NCOP [92ED8598].mkv (110.2 MiB)
    • [Mysteria] Masamune-kun no Revenge - S01E00 (BD 1080p FLAC) [7B3E21EB].mkv (958.0 MiB)
    • [Mysteria] Masamune-kun no Revenge - S01E01 (BD 1080p Hi10 FLAC) [E65E36F4].mkv (1.3 GiB)
    • [Mysteria] Masamune-kun no Revenge - S01E02 (BD 1080p Hi10 FLAC) [07F1DF57].mkv (1.4 GiB)
    • [Mysteria] Masamune-kun no Revenge - S01E03 (BD 1080p Hi10 FLAC) [5454158C].mkv (1.2 GiB)
    • [Mysteria] Masamune-kun no Revenge - S01E04 (BD 1080p Hi10 FLAC) [391E32DC].mkv (2.7 GiB)
    • [Mysteria] Masamune-kun no Revenge - S01E05 (BD 1080p Hi10 FLAC) [AEA03848].mkv (1.3 GiB)
    • [Mysteria] Masamune-kun no Revenge - S01E06 (BD 1080p Hi10 FLAC) [4C651911].mkv (1.3 GiB)
    • [Mysteria] Masamune-kun no Revenge - S01E07 (BD 1080p Hi10 FLAC) [DD8E67F9].mkv (1.3 GiB)
    • [Mysteria] Masamune-kun no Revenge - S01E08 (BD 1080p Hi10 FLAC) [E109B326].mkv (1.2 GiB)
    • [Mysteria] Masamune-kun no Revenge - S01E09 (BD 1080p Hi10 FLAC) [B5AC5B30].mkv (1.4 GiB)
    • [Mysteria] Masamune-kun no Revenge - S01E10 (BD 1080p Hi10 FLAC) [ABAE8CC4].mkv (1.2 GiB)
    • [Mysteria] Masamune-kun no Revenge - S01E11 (BD 1080p Hi10 FLAC) [BCCF6C66].mkv (1.3 GiB)
    • [Mysteria] Masamune-kun no Revenge - S01E12 (BD 1080p Hi10 FLAC) [B9214BFB].mkv (1.2 GiB)
DameDesuYo did only 9 episodes

Ingenioussubs (uploader)

User
**@Marche** I'm well aware of that. The subs from Judas' release have all the subs typeset, edited, and QC'd for the last three. Obviously checked before uploading. The subs originally came from jdcox's release.
Why name it "full subtitles" when there's no option for partial subtitles 😂
Plot is a 10 out 10 haha
No good dual audio for thsi