[Yūrei] Tenki no Ko (Weathering with You) [BD 1080p x265 10bit Opus 5.1 Dual Audio]

Category:
Date:
2020-09-17 03:39 UTC
Submitter:
Anonymous
Seeders:
8
Information:
No information.
Leechers:
0
File size:
7.1 GiB
Completed:
133
Info hash:
ac8c4ad4205fb4429b55d81342779137f2e245f4
[![238108.jpg](https://i.postimg.cc/NF303Mz9/238108.jpg)](https://postimg.cc/30Z7pK7Y) [![Tenki-no-Ko-mkv-snapshot-00-06-16-2020-09-16-22-01-30.png](https://i.postimg.cc/c126g9Lx/Tenki-no-Ko-mkv-snapshot-00-06-16-2020-09-16-22-01-30.png)](https://postimg.cc/qgcpWGKS) [![Tenki-no-Ko-mkv-snapshot-00-25-36-2020-09-16-22-02-17.png](https://i.postimg.cc/bwjJLZn4/Tenki-no-Ko-mkv-snapshot-00-25-36-2020-09-16-22-02-17.png)](https://postimg.cc/F7DNHsDx) [![Tenki-no-Ko-mkv-snapshot-01-05-30-2020-09-16-22-02-03.png](https://i.postimg.cc/wBqB8n0V/Tenki-no-Ko-mkv-snapshot-01-05-30-2020-09-16-22-02-03.png)](https://postimg.cc/jD1Ty3Vw) Format : Matroska Format version : Version 4 File size : 7.07 GiB Duration : 1 h 52 min Overall bit rate : 9 014 kb/s Video ID : 1 Format : HEVC Format/Info : High Efficiency Video Coding Format profile : Main 10@L5@Main Codec ID : V_MPEGH/ISO/HEVC Duration : 1 h 52 min Bit rate : 8 046 kb/s Width : 1 920 pixels Height : 1 080 pixels Display aspect ratio : 16:9 Frame rate mode : Constant Frame rate : 23.976 (24000/1001) FPS Color space : YUV Chroma subsampling : 4:2:0 Bit depth : 10 bits Bits/(Pixel*Frame) : 0.162 Stream size : 6.31 GiB (89%) Writing library : x265 3.4+15-g45f1d01f8:[Windows][MSVC 1927][64 bit] 10bit Encoding settings : cpuid=1111039 / frame-threads=1 / numa-pools=24 / wpp / no-pmode / no-pme / no-psnr / no-ssim / log-level=2 / input-csp=1 / input-res=1920x1080 / interlace=0 / total-frames=161448 / level-idc=0 / high-tier=1 / uhd-bd=0 / ref=6 / no-allow-non-conformance / no-repeat-headers / annexb / no-aud / no-hrd / info / hash=0 / no-temporal-layers / open-gop / min-keyint=23 / keyint=250 / gop-lookahead=0 / bframes=8 / b-adapt=2 / b-pyramid / bframe-bias=0 / rc-lookahead=25 / lookahead-slices=4 / scenecut=40 / hist-scenecut=0 / radl=0 / no-splice / no-intra-refresh / ctu=64 / min-cu-size=8 / rect / no-amp / max-tu-size=32 / tu-inter-depth=1 / tu-intra-depth=1 / limit-tu=0 / rdoq-level=2 / dynamic-rd=0.00 / no-ssim-rd / signhide / no-tskip / nr-intra=0 / nr-inter=0 / no-constrained-intra / strong-intra-smoothing / max-merge=3 / limit-refs=3 / limit-modes / me=3 / subme=3 / merange=57 / temporal-mvp / no-frame-dup / no-hme / weightp / no-weightb / no-analyze-src-pics / deblock=0:0 / no-sao / no-sao-non-deblock / rd=4 / selective-sao=0 / no-early-skip / rskip / no-fast-intra / no-tskip-fast / no-cu-lossless / no-b-intra / no-splitrd-skip / rdpenalty=0 / psy-rd=1.50 / psy-rdoq=4.00 / no-rd-refine / no-lossless / cbqpoffs=0 / crqpoffs=0 / rc=crf / crf=16.0 / qcomp=0.60 / qpstep=4 / stats-write=0 / stats-read=0 / ipratio=1.40 / pbratio=1.30 / aq-mode=3 / aq-strength=1.00 / cutree / zone-count=0 / no-strict-cbr / qg-size=32 / no-rc-grain / qpmax=69 / qpmin=0 / no-const-vbv / sar=0 / overscan=0 / videoformat=5 / range=0 / colorprim=1 / transfer=1 / colormatrix=1 / chromaloc=0 / display-window=0 / cll=0,0 / min-luma=0 / max-luma=1023 / log2-max-poc-lsb=8 / vui-timing-info / vui-hrd-info / slices=1 / no-opt-qp-pps / no-opt-ref-list-length-pps / no-multi-pass-opt-rps / scenecut-bias=0.05 / hist-threshold=0.03 / no-opt-cu-delta-qp / no-aq-motion / no-hdr10 / no-hdr10-opt / no-dhdr10-opt / no-idr-recovery-sei / analysis-reuse-level=0 / analysis-save-reuse-level=0 / analysis-load-reuse-level=0 / scale-factor=0 / refine-intra=0 / refine-inter=0 / refine-mv=1 / refine-ctu-distortion=0 / no-limit-sao / ctu-info=0 / no-lowpass-dct / refine-analysis-type=0 / copy-pic=1 / max-ausize-factor=1.0 / no-dynamic-refine / no-single-sei / no-hevc-aq / no-svt / no-field / qp-adaptation-range=1.00 / no-scenecut-aware-qpconformance-window-offsets / right=0 / bottom=0 / decoder-max-rate=0 Default : Yes Forced : No Color range : Limited Color primaries : BT.709 Transfer characteristics : BT.709 Matrix coefficients : BT.709 Audio #1 ID : 2 Format : Opus Codec ID : A_OPUS Duration : 1 h 52 min Bit rate : 346 kb/s Channel(s) : 6 channels Channel layout : L R C Lb Rb LFE Sampling rate : 48.0 kHz Frame rate : 50.000 FPS (960 SPF) Compression mode : Lossy Stream size : 278 MiB (4%) Language : Japanese Default : Yes Forced : No Audio #2 ID : 3 Format : Opus Codec ID : A_OPUS Duration : 1 h 52 min Bit rate : 346 kb/s Channel(s) : 6 channels Channel layout : L R C Lb Rb LFE Sampling rate : 48.0 kHz Frame rate : 50.000 FPS (960 SPF) Compression mode : Lossy Delay relative to video : 20 ms Stream size : 278 MiB (4%) Language : English Default : No Forced : No Subtitles: English ASS [English [Lonely Hikikomori]] (default) with Honorifics English ASS [English [Lonely Hikikomori]] without Honorifics English PGS [For the Deaf And Hard of Hearing Without Songs] English PGS [For the Deaf And Hard of Hearing With Songs] English PGS [Full Dialouge Without Songs] English PGS [Full Dialouge With Songs] Spanish PGS French PGS English PGS [Signs & Songs] English PGS [Signs] Japanese PGS Chinese PGS

File list

  • Tenki no Ko.mkv (7.1 GiB)
Congrats man. This is probably the 300th release. If I release this myself, (which I’m not going to) it would be nuts. There are so many releases for this movie dammit. Guess I’ll stick with some good old Bloatrice.
I'm just shocked it never got a properly fansubbed/typeset release, it's a real shame. At this point I can't believe that I'm waiting with bated breath for a Commie release
300th > 299th therefore better.