[neoHEVC] The Magnificent Kotobuki / Kouya no Kotobuki Hikoutai [BD 1080p x265 HEVC AAC]

Category:
Date:
2020-09-16 16:06 UTC
Submitter:
Seeders:
3
Information:
Leechers:
1
File size:
3.9 GiB
Completed:
161
Info hash:
df0c80cb86d1e60d3cce504a05560cb7458686fe
![](https://i.imgur.com/2dVqnvx.png) *Join **[Discord](https://discord.gg/KYKYZUh)** for Current Projects, Encode-Requests and Seed-Request in case of no available seeds.* **The Magnificent Kotobuki / Kouya no Kotobuki Hikoutai** *with `Jpn Dub` and `Eng Subs` in `1080p HEVC`* Encode of [npz] (x264 AVC DTS XLL) to (x265 HEVC AAC) with added subtitles from [LeftWing]. Ⓜ️ [The Magnificent Kotobuki / Kouya no Kotobuki Hikoutai on MAL](https://myanimelist.net/anime/38301/Kouya_no_Kotobuki_Hikoutai) --- **Synopsis** In a barren frontier where people trade goods with each other in order to help each other survive. The Kotobuki Squadron are bodyguards for hire, led by a strict but beautiful squadron leader, an unreliable commanding officer, and a true artisan of a crew chief. Alongside pilots who don't lack for personality, they take to the air in dogfights, letting the engine noise of their Hayabusa fighters ring out in the skies. ![](https://i.imgur.com/vTYggkf.png) --- **Comparison** (avc: source, hevc: encode) *Open links, toggle with mouseclick and check title.* [![](https://i.imgur.com/GcvRLpd.png)](https://slow.pics/c/Jj6mJ6ch) [![](https://i.imgur.com/BnH1ltq.png)](https://slow.pics/c/RAQEhQaI) [![](https://i.imgur.com/mWTdm67.png)](https://slow.pics/c/JzwqYWsZ) --- **Source** 🗃️ Video and Audio: [npz] https://nyaa.si/view/1277486 🗃️ Subs: [LeftWing] https://nyaa.si/view/1175231 💬 *Subtitles Info: [LeftWing] TS, ED [EraiRaws / WEB] Translation - Format `ASS`* --- **Media Info** ``` General Unique ID : 286251423721807638393061421279988237280 (0xD75A04D3CECD1E8E7DD8049EA19D43E0) Complete name : The Magnificent Kotobuki - S01E01.mkv Format : Matroska Format version : Version 4 File size : 324 MiB Duration : 24 min 42 s Overall bit rate : 1 836 kb/s Movie name : The Magnificent Kotobuki - S01E01 Encoded date : UTC 2020-09-16 15:49:11 Writing application : mkvmerge v47.0.0 ('Black Flag') 64-bit Writing library : libebml v1.3.10 + libmatroska v1.5.2 / Lavf58.47.100 Attachments : ArchitectsDaughter.ttf / FREESCPT.TTF / gi_incognitosquat.ttf / Kalam-Bold.ttf / Rubik-Regular.ttf / BPreplayExtended.otf / BPreplayExtendedBold.otf / GandhiSans-Bold.otf / GandhiSans-BoldItalic.otf / Storgata.otf / Tech Headlines.otf Video ID : 1 Format : HEVC Format/Info : High Efficiency Video Coding Format profile : Main 10@L4.1@High Codec ID : V_MPEGH/ISO/HEVC Duration : 24 min 42 s Bit rate : 1 620 kb/s Width : 1 920 pixels Height : 1 080 pixels Display aspect ratio : 16:9 Frame rate mode : Constant Frame rate : 23.976 (24000/1001) FPS Color space : YUV Chroma subsampling : 4:2:0 Bit depth : 10 bits Bits/(Pixel*Frame) : 0.033 Stream size : 286 MiB (88%) Writing library : x265 3.2.1+1-b5c86a64bbbe:[Windows][GCC 9.2.0][64 bit] 10bit Encoding settings : cpuid=1111039 / frame-threads=2 / numa-pools=4 / wpp / no-pmode / no-pme / no-psnr / no-ssim / log-level=2 / input-csp=1 / input-res=1920x1080 / interlace=0 / total-frames=0 / level-idc=41 / high-tier=1 / uhd-bd=0 / ref=5 / no-allow-non-conformance / no-repeat-headers / annexb / no-aud / no-hrd / info / hash=0 / no-temporal-layers / open-gop / min-keyint=24 / keyint=240 / gop-lookahead=0 / bframes=8 / b-adapt=2 / b-pyramid / bframe-bias=0 / rc-lookahead=25 / lookahead-slices=4 / scenecut=40 / radl=0 / no-splice / no-intra-refresh / ctu=64 / min-cu-size=8 / rect / no-amp / max-tu-size=32 / tu-inter-depth=1 / tu-intra-depth=1 / limit-tu=0 / rdoq-level=2 / dynamic-rd=0.00 / no-ssim-rd / signhide / no-tskip / nr-intra=0 / nr-inter=0 / no-constrained-intra / strong-intra-smoothing / max-merge=3 / limit-refs=3 / limit-modes / me=3 / subme=3 / merange=57 / temporal-mvp / no-hme / weightp / no-weightb / no-analyze-src-pics / deblock=0:0 / sao / no-sao-non-deblock / rd=4 / selective-sao=4 / no-early-skip / rskip / no-fast-intra / no-tskip-fast / no-cu-lossless / no-b-intra / no-splitrd-skip / rdpenalty=0 / psy-rd=0.00 / psy-rdoq=1.00 / no-rd-refine / no-lossless / cbqpoffs=0 / crqpoffs=0 / rc=crf / crf=21.0 / qcomp=0.60 / qpstep=4 / stats-write=0 / stats-read=0 / vbv-maxrate=50000 / vbv-bufsize=50000 / vbv-init=0.9 / crf-max=0.0 / crf-min=0.0 / ipratio=1.40 / pbratio=1.30 / aq-mode=3 / aq-strength=0.80 / cutree / zone-count=0 / no-strict-cbr / qg-size=32 / no-rc-grain / qpmax=69 / qpmin=0 / no-const-vbv / sar=1 / overscan=0 / videoformat=5 / range=0 / colorprim=1 / transfer=1 / colormatrix=1 / chromaloc=0 / display-window=0 / cll=0,0 / min-luma=0 / max-luma=1023 / log2-max-poc-lsb=8 / vui-timing-info / vui-hrd-info / slices=1 / no-opt-qp-pps / no-opt-ref-list-length-pps / no-multi-pass-opt-rps / scenecut-bias=0.05 / no-opt-cu-delta-qp / no-aq-motion / no-hdr / no-hdr-opt / no-dhdr10-opt / no-idr-recovery-sei / analysis-reuse-level=5 / scale-factor=0 / refine-intra=0 / refine-inter=0 / refine-mv=1 / refine-ctu-distortion=0 / no-limit-sao / ctu-info=0 / no-lowpass-dct / refine-analysis-type=0 / copy-pic=1 / max-ausize-factor=1.0 / no-dynamic-refine / no-single-sei / no-hevc-aq / no-svt / no-field / qp-adaptation-range=1.00 Default : Yes Forced : No Color range : Limited Color primaries : BT.709 Transfer characteristics : BT.709 Matrix coefficients : BT.709 Audio ID : 2 Format : AAC LC Format/Info : Advanced Audio Codec Low Complexity Codec ID : A_AAC-2 Duration : 23 min 43 s Bit rate : 215 kb/s Channel(s) : 2 channels Channel layout : L R Sampling rate : 48.0 kHz Frame rate : 46.875 FPS (1024 SPF) Compression mode : Lossy Delay relative to video : -43 ms Stream size : 36.5 MiB (11%) Title : Stereo - JPN (AAC) Language : Japanese Default : Yes Forced : No Text ID : 3 Format : ASS Codec ID : S_TEXT/ASS Codec ID/Info : Advanced Sub Station Alpha Duration : 23 min 38 s Bit rate : 633 b/s Count of elements : 552 Compression mode : Lossless Stream size : 110 KiB (0%) Title : Dialog - ENG (ASS) Language : English Default : Yes Forced : No Menu 00:00:00.000 : :Chapter 1 00:08:09.948 : :Chapter 2 00:21:55.940 : :Chapter 3 00:23:25.905 : :Chapter 4 00:23:42.421 : :Chapter 5 ```

File list

  • [neoHEVC] The Magnificent Kotobuki [BD 1080p x265 HEVC AAC]
    • The Magnificent Kotobuki - S01E01.mkv (324.5 MiB)
    • The Magnificent Kotobuki - S01E02.mkv (287.8 MiB)
    • The Magnificent Kotobuki - S01E03.mkv (295.3 MiB)
    • The Magnificent Kotobuki - S01E04.mkv (331.4 MiB)
    • The Magnificent Kotobuki - S01E05.mkv (344.6 MiB)
    • The Magnificent Kotobuki - S01E06.mkv (280.8 MiB)
    • The Magnificent Kotobuki - S01E07.mkv (276.4 MiB)
    • The Magnificent Kotobuki - S01E08.mkv (233.7 MiB)
    • The Magnificent Kotobuki - S01E09.mkv (309.0 MiB)
    • The Magnificent Kotobuki - S01E10.mkv (294.8 MiB)
    • The Magnificent Kotobuki - S01E11.mkv (406.0 MiB)
    • The Magnificent Kotobuki - S01E12.mkv (616.6 MiB)
Thanks for accepting for my request. Another white torrent under your name.
I'm on this like ~~white~~ natto on rice!
Thanks for your work. Would you consider doing Wolf's Rain?
Thanks for this! can you do Toaru Hikuushi e no Koiuta?

neoborn (uploader)

User
![](https://i.imgur.com/MSA3n87.png) **@geha714** I have this in my collection already. I think it was [cleo]. At the time I compared it with that big 30Gb upload and was happy with the [cleo] version. Mine wouldn't look much different to his. **@Lasroy** I could do a HEVC version with [BlurayDesuYo]. Will take a look at that.
Wow please do take a look at it. [BlurayDesuYo] is good but the size kills my peasant laptop.