[IrizaRaws] Saezuru Tori wa Habatakanai Movie 01 (BDRip 1920x1080 x264 10bit THDx2 AC3x2)

Category:
Date:
2020-09-16 16:02 UTC
Submitter:
Seeders:
7
Information:
No information.
Leechers:
1
File size:
7.4 GiB
Completed:
89
Info hash:
c265640e5f77c5190a91dd05ae72069b90982b88
Hello! My rips are made from Japanese BDMV, unless stated otherwise. In terms of video quality, my raws should be comparable to ReinForce (since I started from their settings, and then modified it). I don’t use AA, blur, denoise and other such “enhancments”. Basically, the idea of my encodes will be: as similar to BDMV as possible, while redusing size 3-4 times. Also I will rip Audio Commentary’s, interview’s and such things (everything, that’s on BD). Again, If you found any Bugs, mistakes, problems etc. Please comment! If needed I will reencode. About this Anime: https://myanimelist.net/anime/39761 https://anidb.net/perl-bin/animedb.pl?show=anime&aid=14889 SEED PLEASE! MediaInfo: General Unique ID : 89634668681692651067893002019381175949 (0x436F025E01BE36747FFAF2BC40F7E68D) Complete name : D:\work\Rip\Saezuru Tori wa Habatakanai\[IrizaRaws] Saezuru Tori wa Habatakanai Movie 01 (BDRip 1920x1080 x264 10bit THDx2 AC3x2)\[IrizaRaws] Saezuru Tori wa Habatakanai Movie 01 (BDRip 1920x1080 x264 10bit THDx2 AC3x2).mkv Format : Matroska Format version : Version 2 File size : 6.34 GiB Duration : 1 h 25 min Overall bit rate mode : Variable Overall bit rate : 10.6 Mb/s Encoded date : UTC 2020-09-16 15:15:07 Writing application : mkvmerge v47.0.0 ('Black Flag') 64-bit Writing library : libebml v1.3.10 + libmatroska v1.5.2 Video ID : 1 Format : AVC Format/Info : Advanced Video Codec Format profile : High 10@L5.2 Format settings : CABAC / 8 Ref Frames Format settings, CABAC : Yes Format settings, RefFrames : 8 frames Codec ID : V_MPEG4/ISO/AVC Duration : 1 h 25 min Bit rate : 5 937 kb/s Width : 1 920 pixels Height : 1 080 pixels Display aspect ratio : 16:9 Frame rate mode : Constant Frame rate : 23.976 (24000/1001) FPS Color space : YUV Chroma subsampling : 4:2:0 Bit depth : 10 bits Scan type : Progressive Bits/(Pixel*Frame) : 0.119 Stream size : 3.55 GiB (56%) Writing library : x264 core 160 r3000 33f9e14 Encoding settings : cabac=1 / ref=8 / deblock=1:-2:-2 / analyse=0x3:0x113 / me=umh / subme=9 / psy=1 / psy_rd=0.70:0.00 / mixed_ref=0 / me_range=32 / chroma_me=1 / trellis=2 / 8x8dct=1 / cqm=0 / deadzone=21,11 / fast_pskip=0 / chroma_qp_offset=-2 / threads=22 / lookahead_threads=3 / sliced_threads=0 / nr=0 / decimate=1 / interlaced=0 / bluray_compat=0 / constrained_intra=0 / bframes=9 / b_pyramid=2 / b_adapt=2 / b_bias=0 / direct=0 / weightb=1 / open_gop=0 / weightp=2 / keyint=250 / keyint_min=23 / scenecut=40 / intra_refresh=0 / rc=crf / mbtree=0 / crf=17.5 / qcomp=1.00 / qpmin=0 / qpmax=40 / qpstep=4 / ip_ratio=1.40 / pb_ratio=1.30 / aq=1:1.00 Default : Yes Forced : No Audio #1 ID : 2 Format : TrueHD Codec ID : A_TRUEHD Duration : 1 h 25 min Bit rate mode : Variable Bit rate : 1 288 kb/s Maximum bit rate : 1 788 kb/s Channel(s) : 2 channels Channel positions : Front: C Sampling rate : 48.0 kHz Frame rate : 1 200.000 FPS (40 SPF) Compression mode : Lossless Stream size : 790 MiB (12%) Title : Main THD 2.0 Language : Japanese Default : Yes Forced : No Audio #2 ID : 3 Format : AC-3 Format/Info : Audio Coding 3 Format settings, Endianness : Big Codec ID : A_AC3 Duration : 1 h 25 min Bit rate mode : Constant Bit rate : 640 kb/s Channel(s) : 2 channels Channel positions : Front: L R Sampling rate : 48.0 kHz Frame rate : 31.250 FPS (1536 SPF) Bit depth : 16 bits Compression mode : Lossy Stream size : 392 MiB (6%) Title : Main AC3 2.0 Language : Japanese Service kind : Complete Main Default : No Forced : No Audio #3 ID : 4 Format : TrueHD Codec ID : A_TRUEHD Duration : 1 h 25 min Bit rate mode : Variable Bit rate : 1 837 kb/s Maximum bit rate : 2 661 kb/s Channel(s) : 4 channels Channel positions : Front: L C R, LFE Sampling rate : 48.0 kHz Frame rate : 1 200.000 FPS (40 SPF) Compression mode : Lossless Stream size : 1.10 GiB (17%) Title : Main THD 3.1 Language : Japanese Default : No Forced : No Audio #4 ID : 5 Format : AC-3 Format/Info : Audio Coding 3 Format settings, Endianness : Big Codec ID : A_AC3 Duration : 1 h 25 min Bit rate mode : Constant Bit rate : 640 kb/s Channel(s) : 4 channels Channel positions : Front: L C R, LFE Sampling rate : 48.0 kHz Frame rate : 31.250 FPS (1536 SPF) Bit depth : 16 bits Compression mode : Lossy Stream size : 392 MiB (6%) Title : Main AC3 3.1 Language : Japanese Service kind : Complete Main Default : No Forced : No Text ID : 6 Format : PGS Muxing mode : zlib Codec ID : S_HDMV/PGS Codec ID/Info : Picture based subtitle format used on BDs/HD-DVDs Duration : 1 h 24 min Bit rate : 290 kb/s Count of elements : 8580 Stream size : 175 MiB (3%) Language : Japanese Default : Yes Forced : No Menu 00:00:00.000 : en:Chapter 1 00:04:52.542 : en:Chapter 2 00:19:13.777 : en:Chapter 3 00:32:18.937 : en:Chapter 4 00:44:04.808 : en:Chapter 5 00:52:10.127 : en:Chapter 6 01:03:14.874 : en:Chapter 7 01:10:47.243 : en:Chapter 8 01:20:30.826 : en:Chapter 9 01:25:16.111 : en:Chapter 10

File list

  • [IrizaRaws] Saezuru Tori wa Habatakanai Movie 01 (BDRip 1920x1080 x264 10bit THDx2 AC3x2)
    • Bonus
      • MV
        • [IrizaRaws] Saezuru Tori wa Habatakanai Movie 01 Music Video (BDRip 1920x1080 x264 10bit THD AC3).mkv (356.3 MiB)
      • Menu
        • [IrizaRaws] Saezuru Tori wa Habatakanai Movie 01 DVD Menu (DVDRip 720x480 x264 10bit AC3).mkv (31.8 MiB)
        • [IrizaRaws] Saezuru Tori wa Habatakanai Movie 01 Menu - 01 (BDRip 1920x1080 x264 10bit FLAC).mkv (52.7 MiB)
        • [IrizaRaws] Saezuru Tori wa Habatakanai Movie 01 Menu - 02 (BDRip 1920x1080 x264 10bit FLAC).mkv (51.6 MiB)
      • PV
        • [IrizaRaws] Saezuru Tori wa Habatakanai Movie 01 PV - 01 (BDRip 1920x1080 x264 10bit THD AC3).mkv (29.2 MiB)
        • [IrizaRaws] Saezuru Tori wa Habatakanai Movie 01 PV - 02 (BDRip 1920x1080 x264 10bit THD AC3).mkv (54.6 MiB)
        • [IrizaRaws] Saezuru Tori wa Habatakanai Movie 01 PV - 03 (BDRip 1920x1080 x264 10bit THD AC3).mkv (100.3 MiB)
        • [IrizaRaws] Saezuru Tori wa Habatakanai Movie 01 PV - 04 (BDRip 1920x1080 x264 10bit THD AC3).mkv (179.5 MiB)
      • [IrizaRaws] Saezuru Tori wa Habatakanai Movie 01 Logo (BDRip 1920x1080 x264 10bit FLAC).mkv (9.4 MiB)
    • Special
      • [IrizaRaws] Saezuru Tori wa Habatakanai Movie 01 DVD Special (DVDRip 720x480 x264 10bit AC3).mkv (249.3 MiB)
    • [IrizaRaws] Saezuru Tori wa Habatakanai Movie 01 (BDRip 1920x1080 x264 10bit THDx2 AC3x2).mkv (6.3 GiB)