[Mysteria] Angel Beats! (BD 1080p Hi10 FLAC)

Category:
Date:
2020-09-16 13:55 UTC
Submitter:
Seeders:
5
Information:
Leechers:
7
File size:
38.1 GiB
Completed:
52
Info hash:
98e0786833267109421c5f2e2948dd28786bf234
![alt text](https://m.media-amazon.com/images/M/MV5BMDRjZDQxMzItMmM3ZC00MDhkLWE2OTgtOWZjZDJjODJkNTQ3L2ltYWdlXkEyXkFqcGdeQXVyMzgxODM4NjM@._V1_.jpg) **~ All the subs were taken from [deanzel's v2 version.](https://nibl.co.uk/bots.php?search=deanzel+angel+beats) Basically, some karaoke fixes were done. Deanzel's last 1080p one at the bottom is the v2, but it's not labeled.** Description: Title: Angel Beats! *Original Source: **[Beatrice-Raws](https://nyaa.si/view/902788)** *Video Format: x264 AVC 10bit mkv *Audio Codec: Japanese 2.0 FLAC *Duration: 24 minutes *Subtitle Source: **Static-Subs (Doki), Mazui (Elysium; Doki styling), UTW (Doki styling), Tormaid (joseole99)** *Resolution/Quality: 1920x1080 or 1080p HD *Genre: Action, Comedy, Drama, School, Supernatural *Age Rating: PG-13 **Screens:** ![alt text](https://i.imgur.com/JBccoBo.jpg) ![alt text](https://i.imgur.com/lcwdZaR.jpg) ![alt text](https://i.imgur.com/fu9oSwV.jpg) **Media Info:** ``` General Unique ID : 78764976460093726709324375429490382301 (0x3B41952A1491225CE2754E00575795DD) Complete name : C:\Users\Mysteria\Downloads\[Mysteria] Angel Beats! (BD 1080p Hi10 FLAC)\Season 1\[Mysteria] Angel Beats! - 01.mkv Format : Matroska Format version : Version 4 File size : 2.39 GiB Duration : 26 min 3 s Overall bit rate mode : Variable Overall bit rate : 13.1 Mb/s Movie name : [Mysteria] Angel Beats! - 01 Encoded date : UTC 2020-09-15 22:19:31 Writing application : mkvmerge v50.0.0 ('Awakenings') 64-bit Writing library : libebml v1.4.0 + libmatroska v1.6.2 Attachments : 71MKA.TTF / 75749.TTF / Addict-Regular.ttf / Adore.ttf / ALBED_.TTF / ALEX___.ttf / ALIEN5.TTF / ALMAGRO.TTF / Angelina.TTF / arial.ttf / arial_0.ttf / AriaScriptSSK-Regular.ttf / Artistik.ttf / ATROX.TTF / ATTICANT.TTF / AUBREY1.TTF / AVGARDNEclipse.ttf / BAKESBR.TTF / BAKESBR_.TTF / Beach.ttf / Bienetresocial.ttf / BODO6OB.TTF / BODO6OW.TTF / BRITANIC.TTF / BrittanicBold.TTF / BSSYM7.TTF / CALIBRI.TTF / CALIFR.TTF / CAMBRIA.TTC / Cartoon_Regular.ttf / CharpentierRenaissance-Norm.otf / chinacat.ttf / ChopinScript.TTF / COMMSB_.TTF / CopperplateGothicBold.TTF / Dutch_766_Bold_BT.ttf / EFFLORES.TTF / epkgobld.ttf / epmgobld.ttf / estre.ttf / Hamilton-Medium.otf / icedeart.ttf / IHATCS.TTF / itc avant garde gothic medium.ttf / JAPAB.TTF / kaiu.ttf / LightWrite_Normal.ttf / linkin.ttf / Magic_Cards.ttf / MARIANFU.TTF / marlett.ttf / MECHAG.TTF / mentone-semibold.otf / Michv2.ttf / MinionPro-BoldCn.otf / MinionPro-BoldCnIt.otf / MinionPro-Regular.otf / PURI10.TTF / PURIB10.TTF / PURIBI10.TTF / Quorum Black BT.ttf / REFSPCL.TTF / SCAR6.TTF / scott__.ttf / segoepr.ttf / simsun.ttc / Summer Wars.TTF / Swkeys1.ttf / symbol.ttf / TakaoPMincho.ttf / times.ttf / VAGRoundedStd-Light.ttf / Vesta-Bold.otf / webdings.ttf / wingding.ttf / WINGDNG2.TTF / WINGDNG3.TTF / y2k.ttf Video ID : 1 Format : AVC Format/Info : Advanced Video Codec Format profile : High 10@L5 Format settings : CABAC / 4 Ref Frames Format settings, CABAC : Yes Format settings, Reference frames : 4 frames Codec ID : V_MPEG4/ISO/AVC Duration : 26 min 3 s Bit rate : 11.5 Mb/s Width : 1 920 pixels Height : 1 080 pixels Display aspect ratio : 16:9 Frame rate mode : Constant Frame rate : 23.976 (24000/1001) FPS Color space : YUV Chroma subsampling : 4:2:0 Bit depth : 10 bits Scan type : Progressive Bits/(Pixel*Frame) : 0.231 Stream size : 2.09 GiB (88%) Title : BDRip by Vladdrako Writing library : x264 core 148 (DJATOM's build) Encoding settings : cabac=1 / ref=4 / deblock=1:1:-1 / analyse=0x3:0x113 / me=umh / subme=9 / psy=1 / fade_compensate=0.00 / psy_rd=1.00:0.00 / mixed_ref=1 / me_range=32 / chroma_me=1 / trellis=2 / 8x8dct=1 / cqm=0 / deadzone=21,11 / fast_pskip=1 / chroma_qp_offset=-2 / threads=34 / lookahead_threads=5 / sliced_threads=0 / nr=0 / decimate=1 / interlaced=0 / bluray_compat=0 / constrained_intra=0 / bframes=9 / b_pyramid=2 / b_adapt=2 / b_bias=0 / direct=1 / weightb=1 / open_gop=0 / weightp=2 / keyint=250 / keyint_min=23 / scenecut=40 / intra_refresh=0 / rc=crf / mbtree=0 / crf=15.1000 / qcomp=0.72 / qpmin=0 / qpmax=81 / qpstep=4 / ip_ratio=1.40 / pb_ratio=1.30 / aq=1:0.85 Language : Japanese Default : Yes Forced : No Color range : Limited Color primaries : BT.709 Transfer characteristics : BT.709 Matrix coefficients : BT.709 Audio ID : 2 Format : FLAC Format/Info : Free Lossless Audio Codec Codec ID : A_FLAC Duration : 26 min 3 s Bit rate mode : Variable Bit rate : 1 406 kb/s Channel(s) : 2 channels Channel layout : L R Sampling rate : 48.0 kHz Frame rate : 11.719 FPS (4096 SPF) Bit depth : 24 bits Compression mode : Lossless Stream size : 262 MiB (11%) Title : Japanese 2.0 FLAC Writing library : libFLAC 1.2.1 (UTC 2007-09-17) Language : Japanese Default : Yes Forced : No Text #1 ID : 3 Format : ASS Codec ID : S_TEXT/ASS Codec ID/Info : Advanced Sub Station Alpha Duration : 26 min 0 s Bit rate : 609 b/s Count of elements : 723 Compression mode : Lossless Stream size : 116 KiB (0%) Title : Static-Subs (Doki) Language : English Default : Yes Forced : No Text #2 ID : 4 Format : ASS Codec ID : S_TEXT/ASS Codec ID/Info : Advanced Sub Station Alpha Duration : 26 min 0 s Bit rate : 602 b/s Count of elements : 722 Compression mode : Lossless Stream size : 115 KiB (0%) Title : Mazui (Elysium; Doki styling) Language : English Default : No Forced : No Text #3 ID : 5 Format : ASS Codec ID : S_TEXT/ASS Codec ID/Info : Advanced Sub Station Alpha Duration : 26 min 0 s Bit rate : 616 b/s Count of elements : 714 Compression mode : Lossless Stream size : 117 KiB (0%) Title : UTW (Doki styling) Language : English Default : No Forced : No Text #4 ID : 6 Format : ASS Codec ID : S_TEXT/ASS Codec ID/Info : Advanced Sub Station Alpha Duration : 25 min 39 s Bit rate : 340 b/s Count of elements : 724 Compression mode : Lossless Stream size : 64.0 KiB (0%) Title : Tormaid (joseole99) Language : English Default : No Forced : No Menu 00:00:00.000 : en:Opening 00:01:31.091 : en:Part A 00:14:17.857 : en:Part B 00:24:15.078 : en:Ending 00:25:47.546 : en:Preview ```

File list

  • [Mysteria] Angel Beats! (BD 1080p Hi10 FLAC)
    • Season 1
      • Creditless
        • Angel Beats!-NCED.mkv (101.0 MiB)
        • Angel Beats!-NCOP.mkv (193.6 MiB)
      • SP
        • [Mysteria] Angel Beats! Another Epilogue.mkv (260.4 MiB)
        • [Mysteria] Angel Beats! Hell's Kitchen OVA 2.mkv (2.6 GiB)
        • [Mysteria] Angel Beats! Stairway to Heaven - OVA 01.mkv (2.8 GiB)
      • [Mysteria] Angel Beats! - 01.mkv (2.4 GiB)
      • [Mysteria] Angel Beats! - 02.mkv (2.6 GiB)
      • [Mysteria] Angel Beats! - 03.mkv (2.3 GiB)
      • [Mysteria] Angel Beats! - 04.mkv (2.1 GiB)
      • [Mysteria] Angel Beats! - 05.mkv (2.3 GiB)
      • [Mysteria] Angel Beats! - 06.mkv (2.3 GiB)
      • [Mysteria] Angel Beats! - 07.mkv (2.3 GiB)
      • [Mysteria] Angel Beats! - 08.mkv (2.4 GiB)
      • [Mysteria] Angel Beats! - 09.mkv (2.5 GiB)
      • [Mysteria] Angel Beats! - 10.mkv (2.5 GiB)
      • [Mysteria] Angel Beats! - 11.mkv (2.8 GiB)
      • [Mysteria] Angel Beats! - 12.mkv (3.0 GiB)
      • [Mysteria] Angel Beats! - 13.mkv (2.5 GiB)
## **ARIGATOU!**
why this instead of "[deanzel] Angel Beats! [BD 1080p Hi10p Dual Audio FLAC]"
**@Ingenioussubs** Thanks for the work but as @valid said, why work on something which already has a good release? You did the same for Plastic Memories, Made in Abyss, Fate Zero and idk maybe some other too. I don't want to shit on your work for no reason, but I'd recommend you to rather work on something which doesn't have a good version already done by someone else. That way there will be more quality stuff on nyaa.

Ingenioussubs (uploader)

User
Dude. I already know this was going to be said. Plastic Memories? Didn’t know a release was up. Also, alt tracks were added. For Fate/Zero, I already have SCY’s release. Already downloaded VCB, so I just muxed in his subs and uploaded a smaller version. Literally, only three of my releases are like this. Wouldn’t want to be a fool, re-uploading stuff for no reason. There is always a valid reason. Only reason this was uploaded, is because **[deanzel](https://nyaa.si/view/657128)** was missing the second OVA, so it wasn’t complete. The subs were also not that great, so I edited them for the second OVA.
Soon, 1 hour will pass and Ingenioussubs won't be able to edit his comment for the 87646th time.

Ingenioussubs (uploader)

User
wtf how... did you notice

AC_

User
I thought/prayed for a moment this was what I was doing so I could drop it(stalled for now) but nope haha. I had Same vid source but fresh timed audio from USBD and subs are ONLY SS/Doki (best of everything instead of multiple subtitles like deanzel did) re styled dialogue and kfx plus font sizes Episode 1 - (To see what I planned to do if anyone is interested) https://mega.nz/folder/Q2oSTQiS#BFoWsc0RA-GzKHciEoPcmw/file/x3hGiazK
Are the subtitles sourced from deanzel's v2 release? Or at least the original one that contains his edits / fixes?

Ingenioussubs (uploader)

User
Yes. Everything is from the v2 version.
Great, thanks so much! May want to update the description to clarify where the final subs source came from since they were edited.