[Mysteria] Plastic Memories (BD 1080p Hi10 FLAC)

Category:
Date:
2020-09-15 15:40 UTC
Submitter:
Seeders:
3
Information:
Leechers:
2
File size:
20.9 GiB
Completed:
98
Info hash:
9f1654e71822e6d60d91d825f388287c123c116d
![alt text](https://upload.wikimedia.org/wikipedia/en/e/e5/Plastic_Memories_DVD_Vol_1.jpg) **Synopsis:** Eighteen-year-old Tsukasa Mizugaki has failed his college entrance exams, but after pulling some strings, he manages to land a job at the Sion Artificial Intelligence Corporation. SAI Corp is responsible for the creation of "Giftias"—highly advanced androids which are almost indiscernible from normal humans. However, unlike humans, Giftias have a maximum lifespan of 81,920 hours, or around nine years and four months. Terminal Service One, the station Tsukasa was assigned to, is responsible for collecting Giftias that have met their expiration date, before they lose their memories and become hostile. Promptly after joining Terminal Service One, Tsukasa is partnered with a beautiful Giftia named Isla. She is a Terminal Service veteran and considered the best in Giftia retrievals, contrary to her petite figure and placid nature. Time is fleeting though, and Tsukasa must come to terms with his feelings for Isla before her time is up. No matter how much someone desires it, nothing lasts forever.. **~ Added Doki as an alt track, used a better source this time.** **Description:** Title: Plastic Memories *Original Source: **[Beatrice-Raws](https://nyaa.si/view/801207)** *Video Format: x264 AVC 10bit mkv *Audio Codec: Japanese 2.0 **(FLAC-16)** *Subtitle Source: **SallySubs, Doki** *Duration: 24 minutes per episode *Subtitle: English *Resolution/Quality: 1920x1080 or 1080p HD *Genre: Sci-Fi, Drama, Romance *Age Rating: PG-13 **Screens:** ![alt text](https://i.imgur.com/1GI9w6u.jpg) ![alt text](https://i.imgur.com/yiX6Xit.jpg) ![alt text](https://i.imgur.com/9M3dDzX.jpg) **Media Info:** ``` General Unique ID : 187811999147637203258336623025322403415 (0x8D4B467A8B2740DB55736E9278372657) Complete name : C:\Users\Mysteria\Downloads\[Mysteria] Plastic Memories (BD 1080p Hi10 FLAC)\Season 1\[Mysteria] Plastic Memories - 03.mkv Format : Matroska Format version : Version 4 File size : 1.79 GiB Duration : 24 min 2 s Overall bit rate mode : Variable Overall bit rate : 10.7 Mb/s Movie name : [Mysteria] Plastic Memories - 03 Encoded date : UTC 2020-09-15 03:17:20 Writing application : mkvmerge v50.0.0 ('Awakenings') 64-bit Writing library : libebml v1.4.0 + libmatroska v1.6.2 Attachments : ArnoPro-Caption.otf / GandhiSans-Bold.otf / GandhiSans-BoldItalic.otf / KozGoPr6N-Medium_0.otf / KozMinPr6N-Bold_0.otf / Material_Sans.ttf / Rosario-Bold.ttf / Rosario-BoldItalic.ttf / Rosario-Italic.ttf / Rosario-Regular.ttf / UrsaSerif Bold.ttf / FRABK.TTF / FRML436N.TTF / kaiu.ttf / LEHN084.TTF / vesta-bold.otf Video ID : 1 Format : AVC Format/Info : Advanced Video Codec Format profile : High 10@L5 Format settings : CABAC / 4 Ref Frames Format settings, CABAC : Yes Format settings, Reference frames : 4 frames Codec ID : V_MPEG4/ISO/AVC Duration : 23 min 59 s Bit rate : 9 951 kb/s Width : 1 920 pixels Height : 1 080 pixels Display aspect ratio : 16:9 Frame rate mode : Constant Frame rate : 23.976 (24000/1001) FPS Color space : YUV Chroma subsampling : 4:2:0 Bit depth : 10 bits Scan type : Progressive Bits/(Pixel*Frame) : 0.200 Stream size : 1.67 GiB (93%) Writing library : x264 core 148 r2665 a01e339 Encoding settings : cabac=1 / ref=4 / deblock=1:-2:-2 / analyse=0x3:0x133 / me=umh / subme=9 / psy=1 / psy_rd=1.00:0.00 / mixed_ref=1 / me_range=32 / chroma_me=1 / trellis=2 / 8x8dct=1 / cqm=0 / deadzone=21,11 / fast_pskip=1 / chroma_qp_offset=-2 / threads=12 / lookahead_threads=3 / sliced_threads=0 / nr=0 / decimate=1 / interlaced=0 / bluray_compat=0 / constrained_intra=0 / bframes=10 / b_pyramid=2 / b_adapt=2 / b_bias=0 / direct=1 / weightb=1 / open_gop=0 / weightp=2 / keyint=250 / keyint_min=23 / scenecut=40 / intra_refresh=0 / rc=crf / mbtree=0 / crf=16.0 / qcomp=0.72 / qpmin=0 / qpmax=81 / qpstep=4 / ip_ratio=1.40 / pb_ratio=1.30 / aq=1:1.00 Language : Japanese Default : Yes Forced : No Color range : Limited Color primaries : BT.709 Transfer characteristics : BT.709 Matrix coefficients : BT.709 Audio ID : 2 Format : FLAC Format/Info : Free Lossless Audio Codec Codec ID : A_FLAC Duration : 24 min 2 s Bit rate mode : Variable Bit rate : 608 kb/s Channel(s) : 2 channels Channel layout : L R Sampling rate : 48.0 kHz Frame rate : 11.719 FPS (4096 SPF) Bit depth : 16 bits Compression mode : Lossless Stream size : 104 MiB (6%) Title : Japanese 2.0 FLAC Writing library : libFLAC 1.3.1 (UTC 2014-11-25) Language : Japanese Default : Yes Forced : No Text #1 ID : 3 Format : ASS Codec ID : S_TEXT/ASS Codec ID/Info : Advanced Sub Station Alpha Duration : 23 min 29 s Bit rate : 703 b/s Count of elements : 821 Compression mode : Lossless Stream size : 121 KiB (0%) Title : Full Subtitles [Sallysubs] Language : English Default : Yes Forced : No Text #2 ID : 4 Format : ASS Codec ID : S_TEXT/ASS Codec ID/Info : Advanced Sub Station Alpha Duration : 23 min 29 s Bit rate : 1 910 b/s Count of elements : 737 Compression mode : Lossless Stream size : 329 KiB (0%) Title : Full Subtitles [Doki] Language : English Default : No Forced : No Menu 00:00:00.000 : en:Prologue 00:00:56.056 : en:Opening 00:02:26.021 : en:Part A 00:15:28.010 : en:Part B 00:22:30.057 : en:Ending ```

File list

  • [Mysteria] Plastic Memories (BD 1080p Hi10 FLAC)
    • Season 1
      • Creditless
        • Plastic Memories-NCED.mkv (95.3 MiB)
        • Plastic Memories-NCOP.mkv (150.2 MiB)
      • [Mysteria] Plastic Memories - 01.mkv (1.6 GiB)
      • [Mysteria] Plastic Memories - 02.mkv (1.7 GiB)
      • [Mysteria] Plastic Memories - 03.mkv (1.8 GiB)
      • [Mysteria] Plastic Memories - 04.mkv (1.5 GiB)
      • [Mysteria] Plastic Memories - 05.mkv (1.5 GiB)
      • [Mysteria] Plastic Memories - 06.mkv (1.6 GiB)
      • [Mysteria] Plastic Memories - 07.mkv (1.7 GiB)
      • [Mysteria] Plastic Memories - 08.mkv (1.6 GiB)
      • [Mysteria] Plastic Memories - 09.mkv (1.8 GiB)
      • [Mysteria] Plastic Memories - 10.mkv (1.6 GiB)
      • [Mysteria] Plastic Memories - 11.mkv (1.7 GiB)
      • [Mysteria] Plastic Memories - 12.mkv (1.2 GiB)
      • [Mysteria] Plastic Memories - 13.mkv (1.5 GiB)
Thanks for this but I just realized that AC already did Plastic Memories. [It](https://nyaa.si/view/1146567) uses Beatrice and Sallysubs as well. You didn't notice it? or did you see some other reason to do your own release?

Ingenioussubs (uploader)

User
**@Archer0034** Nope didn't notice. Would have downloaded that. Also, some fonts are missing. Only thing different here, is that Doki's track is included, and the NC's are added.
@Ingenioussubs: Are those missing fonts missing in your release? If so, could you provide them separate, if possible?

Ingenioussubs (uploader)

User
**@Moses35i** Oh hell no. No fonts are missing. Extremely paranoid about that. Took the subs from Doki' s v2 release, and Sallysubs release. Triple checked everything before uploading. Nothing is missing.
wonder if i should add this anime to the collection too
why not using LateNightSnack or Kantai-Subs ?
Thanks for the release much appreciated
@Ingenioussubs: Thanks for your explanation! @valid: You should add it: The story is quite hitting your feels...
Is this better quality than the Doki release? I already have that one but haven't watched it yet, (which was before I learned/started-to-care-about audio quality). Both are 1080p FLAC BDs, yet yours is MUCH bigger than his (20.9 vs 5.78 gb), is that because yours is better or is it more the case of individual encoding style? I'll pick which ever one is even the slightest bit better to watch, but if they're the exact same quality, I'd rather not spend the time downloading the newer one if I don't have to.
They are indeed better than Doki and the previous release by Mysteria.

Ingenioussubs (uploader)

User
**@jacksmithfuturama** Imagine comparing Beatrice’s encode to Doki’s. 5.78GB to 20GB? 15GB difference? No, man. No difference here! Quality is the same of *course.* *Doki’s encoding skills...* High quality meme. Keep the nonsense coming.
many of those releases are so old too.. from times when <100gb hdds were still normal so they were very likely encoded with those people in mind.. its of course not going to look good in the current year when everyone has hd screens and many tbs of storage :D
at least answer this why you choose Doki over commie ?
@Ingenioussubs I'm new to torrenting anime (and the terminology/technical-side-of-it that comes with it) don't be an elitist dick. I have no frame of reference for who either of these two encoders are either, as I've never heard of Mysteria, and of the few Doki releases I have, I have yet to watch them. I could just make an assumption that one is better than the other based on the file size, but from what I've seen of some comments on the various torrent pages that I HAVE seen, every now and then I come across people judging other people's torrents, some encoders aren't good at debloating their files, and again, as I have NO FRAME OF REFERENCE FOR EITHER OF THESE TWO PEOPLE (a rather pathetic assumption you have right there that everyone that downloads stuff from this site is in some lame little clique, so much so that you would take a simple question from another user as some sort of underhanded meme-insult rather than a genuine question) I have no real way of knowing if this person who I've never heard of is one of those or not.

Ingenioussubs (uploader)

User
**@Aryma** To be honest, had no idea Commie made subs for these. That's really the gist of it.
Sallysubs did CR edited but LateNightSnack is the best sub for this anime and Kantai-Subs and commie is good too

Ingenioussubs (uploader)

User
Lol. I'm not adding them. Original source files have been deleted from my HDD. Never intended to use Commie to begin with. **[If you want Commie's subs, you can get them from AnimeTosho.](https://animetosho.org/search?q=plastic+memories+commie&aids=)**