[neoHEVC] My Next Life as a Villainess: All Routes Lead to Doom! [BD 1080p x265 HEVC AAC] [Dual Audio] Otome Game no Hametsu Flag shika Nai Akuyaku Reijou ni Tensei shiteshimatta... / Hamefura

Category:
Date:
2020-09-15 14:26 UTC
Submitter:
Seeders:
15
Information:
Leechers:
7
File size:
2.7 GiB
Completed:
409
Info hash:
ee391d3fb4027611b852ac5ae4ce0fd816598512
![](https://i.imgur.com/2dVqnvx.png) *Join **[Discord](https://discord.gg/KYKYZUh)** for Current Projects, Encode-Requests and Seed-Request in case of no available seeds.* **My Next Life as a Villainess: All Routes Lead to Doom! / Otome Game no Hametsu Flag shika Nai Akuyaku Reijou ni Tensei shiteshimatta...** *with `Dual Audio (Jpn/Eng)` and `Eng Subs` in `1080p HEVC`* Encode of [TTGA] (x264 AVC FLAC/AAC) to (x265 HEVC AAC). *Side Note: Subtitles for EP 1-3 are from [Chihiro] and for EP 4-12 from [Crunchyroll]. I created an additional [Signs & Songs] subtitles track from the [Dialog] subtitles track for episodes 1-3 and removed the old [Signs] track instead.* Ⓜ️ [My Next Life as a Villainess: All Routes Lead to Doom! / Otome Game no Hametsu Flag shika Nai Akuyaku Reijou ni Tensei shiteshimatta… on MAL](https://myanimelist.net/anime/38555/Otome_Game_no_Hametsu_Flag_shika_Nai_Akuyaku_Reijou_ni_Tensei_shiteshimatta) --- **Patch for Default Language / Subtitles Track** This comes with [English audio] and [Signs/Songs subtitles] as default tracks. I included an xDelta Patch for those who rather like [Japanese audio] with [Dialog subtitles] as default. > Simply put all the video files into the Patch folder and run the patch file depending on your OS (for Windows: run '*3.Apply Patch-Windows.bat*'). > Consult '*readme.txt*' if you need help. --- **Synopsis** Most people would prefer being the protagonist of a world full of adventure, be it in a game or in another world. But, unfortunately, a certain girl is not so lucky. Regaining the memories of her past life, she realizes that she was reborn in the world of Fortune Lover—one of the games she used to play. Unfortunately, the character she was reincarnated into—Katarina Claes—is the game's main antagonist, who faces utter doom in every ending. Using her extensive knowledge of the game, she takes it upon herself to escape from the chains of this accursed destiny. However, this will not be an easy feat, especially since she needs to be cautious as to not set off death flags that may speed up the impending doom she is trying to avoid. Even so, to make a change that will affect the lives of everyone around her, she strives—not as the heroine—but as the villainess. ![](https://i.imgur.com/draNmNe.png) --- **Comparison** (avc: source, hevc: encode) *Open links, toggle with mouseclick and check title.* [![](https://i.imgur.com/2BWDPNH.png)](https://slow.pics/c/F0mTq4YB) [![](https://i.imgur.com/CQ8X4pU.png)](https://slow.pics/c/dnGFhWq3) [![](https://i.imgur.com/i4hXsZ6.png)](https://slow.pics/c/Vu7GkOLg) --- **Source** 🗃️ Video, Audio and Subs: [TTGA] https://nyaa.si/view/1278426 💬 *Subtitles Info: [Chihiro] EP 1-3, [Crunchyroll] EP 4-12 - Format `ASS`* --- **Media Info** 🆔 [Full Mediainfo incl. Encoder Settings](https://pastebin.com/vx3cHeKf) ``` General Unique ID : 256638912114606426307908008494174106333 (0xC112DB48691EC758EF21E4B2C574F2DD) Complete name : My Next Life as a Villainess - All Routes Lead to Doom! - S01E01.mkv Format : Matroska Format version : Version 4 File size : 211 MiB Duration : 24 min 51 s Overall bit rate : 1 185 kb/s Movie name : My Next Life as a Villainess - All Routes Lead to Doom! - S01E01 Encoded date : UTC 2020-09-15 13:11:44 Writing application : mkvmerge v47.0.0 ('Black Flag') 64-bit Writing library : libebml v1.3.10 + libmatroska v1.5.2 / Lavf58.29.100 Attachments : OpenSans-Semibold.ttf / trebuc.ttf / times.ttf / Arial_1A.ttf / AveriaSerif-Light_8.ttf / BABIB.TTF / belligerent_0.ttf / CronosPro-SemiboldDispIt_0.otf / CTMERCURIUSSTD-MEDIUM.OTF / Hand of Diesel.ttf / NewBaskerville.ttf / PRATERSERIFONE-BOLD.OTF / Rosario-Bold_C.otf / Rosario-BoldItalic_C.otf / Swiss 721 Medium BT_0.ttf Video ID : 1 Format : HEVC Format/Info : High Efficiency Video Coding Format profile : Main 10@L4.1@High Codec ID : V_MPEGH/ISO/HEVC Duration : 24 min 50 s Bit rate : 800 kb/s Width : 1 920 pixels Height : 1 080 pixels Display aspect ratio : 16:9 Frame rate mode : Constant Frame rate : 23.976 (24000/1001) FPS Color space : YUV Chroma subsampling : 4:2:0 Bit depth : 10 bits Bits/(Pixel*Frame) : 0.016 Stream size : 142 MiB (67%) Writing library : x265 3.2.1+1-b5c86a64bbbe:[Windows][GCC 9.2.0][64 bit] 10bit Encoding settings : <Check Link Above> Default : Yes Forced : No Color range : Limited Color primaries : BT.709 Transfer characteristics : BT.709 Matrix coefficients : BT.709 Audio #1 ID : 2 Format : AAC LC Format/Info : Advanced Audio Codec Low Complexity Codec ID : A_AAC-2 Duration : 24 min 50 s Bit rate : 128 kb/s Channel(s) : 2 channels Channel layout : L R Sampling rate : 44.1 kHz Frame rate : 43.066 FPS (1024 SPF) Compression mode : Lossy Delay relative to video : 1 s 5 ms Stream size : 22.7 MiB (11%) Title : Stereo - ENG (AAC) Language : English Default : Yes Forced : Yes Audio #2 ID : 3 Format : AAC LC Format/Info : Advanced Audio Codec Low Complexity Codec ID : A_AAC-2 Duration : 24 min 50 s Bit rate : 200 kb/s Channel(s) : 2 channels Channel layout : L R Sampling rate : 48.0 kHz Frame rate : 46.875 FPS (1024 SPF) Compression mode : Lossy Delay relative to video : -43 ms Stream size : 35.6 MiB (17%) Title : Stereo - JPN (AAC) Language : Japanese Default : No Forced : No Text #1 ID : 4 Format : ASS Codec ID : S_TEXT/ASS Codec ID/Info : Advanced Sub Station Alpha Duration : 15 min 8 s Bit rate : 26.0 kb/s Count of elements : 26695 Compression mode : Lossless Stream size : 2.81 MiB (1%) Title : Signs & Songs - ENG (ASS) Language : English Default : Yes Forced : Yes Text #2 ID : 5 Format : ASS Codec ID : S_TEXT/ASS Codec ID/Info : Advanced Sub Station Alpha Duration : 24 min 33 s Bit rate : 16.2 kb/s Count of elements : 27118 Compression mode : Lossless Stream size : 2.84 MiB (1%) Title : Dialog - ENG (ASS) Language : English Default : No Forced : No Menu 00:00:00.000 : :Intro 00:00:57.057 : :Prologue 00:08:25.130 : :OP 00:09:55.220 : :Part A 00:14:19.025 : :Part B ```

File list

  • [neoHEVC] My Next Life as a Villainess - All Routes Lead to Doom! [BD 1080p x265 HEVC AAC] [Dual Audio]
    • Language Swap Patch
      • vcdiff
        • My Next Life as a Villainess - All Routes Lead to Doom! - S01E01.mkv.vcdiff (1.5 MiB)
        • My Next Life as a Villainess - All Routes Lead to Doom! - S01E02.mkv.vcdiff (605.8 KiB)
        • My Next Life as a Villainess - All Routes Lead to Doom! - S01E03.mkv.vcdiff (325.2 KiB)
        • My Next Life as a Villainess - All Routes Lead to Doom! - S01E04.mkv.vcdiff (89.1 KiB)
        • My Next Life as a Villainess - All Routes Lead to Doom! - S01E05.mkv.vcdiff (89.5 KiB)
        • My Next Life as a Villainess - All Routes Lead to Doom! - S01E06.mkv.vcdiff (88.9 KiB)
        • My Next Life as a Villainess - All Routes Lead to Doom! - S01E07.mkv.vcdiff (89.1 KiB)
        • My Next Life as a Villainess - All Routes Lead to Doom! - S01E08.mkv.vcdiff (92.4 KiB)
        • My Next Life as a Villainess - All Routes Lead to Doom! - S01E09.mkv.vcdiff (88.5 KiB)
        • My Next Life as a Villainess - All Routes Lead to Doom! - S01E10.mkv.vcdiff (87.8 KiB)
        • My Next Life as a Villainess - All Routes Lead to Doom! - S01E11.mkv.vcdiff (89.4 KiB)
        • My Next Life as a Villainess - All Routes Lead to Doom! - S01E12.mkv.vcdiff (89.6 KiB)
      • 1.Readme.txt (1.1 KiB)
      • 2.Changelog.txt (0 Bytes)
      • 3.Apply Patch-Linux.sh (3.9 KiB)
      • 3.Apply Patch-Mac.command (4.0 KiB)
      • 3.Apply Patch-Windows.bat (4.1 KiB)
      • xdelta-3.1.0-x86_64.exe (609.8 KiB)
      • xdelta3 (838.8 KiB)
      • xdelta3_mac (144.7 KiB)
    • My Next Life as a Villainess - All Routes Lead to Doom! - S01E01.mkv (210.7 MiB)
    • My Next Life as a Villainess - All Routes Lead to Doom! - S01E02.mkv (228.8 MiB)
    • My Next Life as a Villainess - All Routes Lead to Doom! - S01E03.mkv (235.5 MiB)
    • My Next Life as a Villainess - All Routes Lead to Doom! - S01E04.mkv (221.0 MiB)
    • My Next Life as a Villainess - All Routes Lead to Doom! - S01E05.mkv (233.0 MiB)
    • My Next Life as a Villainess - All Routes Lead to Doom! - S01E06.mkv (223.8 MiB)
    • My Next Life as a Villainess - All Routes Lead to Doom! - S01E07.mkv (227.7 MiB)
    • My Next Life as a Villainess - All Routes Lead to Doom! - S01E08.mkv (298.2 MiB)
    • My Next Life as a Villainess - All Routes Lead to Doom! - S01E09.mkv (214.4 MiB)
    • My Next Life as a Villainess - All Routes Lead to Doom! - S01E10.mkv (203.2 MiB)
    • My Next Life as a Villainess - All Routes Lead to Doom! - S01E11.mkv (232.7 MiB)
    • My Next Life as a Villainess - All Routes Lead to Doom! - S01E12.mkv (192.1 MiB)
Your video source was a BDRemux so you don't really have to mark this release as a remake.

neoborn (uploader)

User
![](https://i.imgur.com/k3AyV74.png) **Old habits, eh...**
@neoborn , you have another new dress/top .Are you ramping up the wardrobe? Thank you for your encodes !!

neoborn (uploader)

User
Indeed. I brought out my fall attire. Always need to be dressed for the occasion!
@Archer0034 Good catch!

neoborn (uploader)

User
![](https://i.imgur.com/N57yrEi.png) **Couldn't resist :O**
Sweet upload! Thanks a bunch.
@Archer0034 can this be classed as a mini mkv since the size is below 400mb?

neoborn (uploader)

User
[Geonode] worked on the subtitles for EP 4-12 and matched them up to the [Chihiro] styling of EP 1-3. Anybody interested can get them here: https://nyaa.si/view/1282679