[Yūrei] Fate/stay night Movie: Heaven's Feel - II. Lost Butterfly [BD 1080p x265 10bit Opus 5.1 Dual Audio]

Category:
Date:
2020-09-15 14:09 UTC
Submitter:
Anonymous
Seeders:
19
Information:
No information.
Leechers:
3
File size:
5.7 GiB
Completed:
526
Info hash:
8feaa3e2645dbb7ccb7d7b1c860cb0450b2c2dd9
[![98158.jpg](https://i.postimg.cc/85WMMCyk/98158.jpg)](https://postimg.cc/62W8NBJF) [![Fate-stay-night-Movie-Heaven-s-Feel-II-Lost-Butterfly-mkv-snapshot-00-11-39-2020-09-15-06-04-3.png](https://i.postimg.cc/yxyRpb4w/Fate-stay-night-Movie-Heaven-s-Feel-II-Lost-Butterfly-mkv-snapshot-00-11-39-2020-09-15-06-04-3.png)](https://postimg.cc/rRzzKgpJ) Format : Matroska Format version : Version 4 File size : 5.74 GiB Duration : 1 h 57 min Overall bit rate : 7 021 kb/s Video ID : 1 Format : HEVC Format/Info : High Efficiency Video Coding Format profile : Main 10@L5@Main Codec ID : V_MPEGH/ISO/HEVC Duration : 1 h 57 min Bit rate : 6 286 kb/s Width : 1 920 pixels Height : 1 080 pixels Display aspect ratio : 16:9 Frame rate mode : Constant Frame rate : 23.976 (24000/1001) FPS Color space : YUV Chroma subsampling : 4:2:0 Bit depth : 10 bits Bits/(Pixel*Frame) : 0.126 Stream size : 5.14 GiB (90%) Writing library : x265 3.4+15-g45f1d01f8:[Windows][MSVC 1927][64 bit] 10bit Encoding settings : cpuid=1111039 / frame-threads=1 / numa-pools=24 / wpp / no-pmode / no-pme / no-psnr / no-ssim / log-level=2 / input-csp=1 / input-res=1920x1080 / interlace=0 / total-frames=168504 / level-idc=0 / high-tier=1 / uhd-bd=0 / ref=6 / no-allow-non-conformance / no-repeat-headers / annexb / no-aud / no-hrd / info / hash=0 / no-temporal-layers / open-gop / min-keyint=23 / keyint=250 / gop-lookahead=0 / bframes=8 / b-adapt=2 / b-pyramid / bframe-bias=0 / rc-lookahead=25 / lookahead-slices=4 / scenecut=40 / hist-scenecut=0 / radl=0 / no-splice / no-intra-refresh / ctu=64 / min-cu-size=8 / rect / no-amp / max-tu-size=32 / tu-inter-depth=1 / tu-intra-depth=1 / limit-tu=0 / rdoq-level=2 / dynamic-rd=0.00 / no-ssim-rd / signhide / no-tskip / nr-intra=0 / nr-inter=0 / no-constrained-intra / strong-intra-smoothing / max-merge=3 / limit-refs=3 / limit-modes / me=3 / subme=3 / merange=57 / temporal-mvp / no-frame-dup / no-hme / weightp / no-weightb / no-analyze-src-pics / deblock=0:0 / no-sao / no-sao-non-deblock / rd=4 / selective-sao=0 / no-early-skip / rskip / no-fast-intra / no-tskip-fast / no-cu-lossless / no-b-intra / no-splitrd-skip / rdpenalty=0 / psy-rd=1.50 / psy-rdoq=4.00 / no-rd-refine / no-lossless / cbqpoffs=0 / crqpoffs=0 / rc=crf / crf=16.0 / qcomp=0.60 / qpstep=4 / stats-write=0 / stats-read=0 / ipratio=1.40 / pbratio=1.30 / aq-mode=3 / aq-strength=1.00 / cutree / zone-count=0 / no-strict-cbr / qg-size=32 / no-rc-grain / qpmax=69 / qpmin=0 / no-const-vbv / sar=0 / overscan=0 / videoformat=5 / range=0 / colorprim=2 / transfer=2 / colormatrix=2 / chromaloc=0 / display-window=0 / cll=0,0 / min-luma=0 / max-luma=1023 / log2-max-poc-lsb=8 / vui-timing-info / vui-hrd-info / slices=1 / no-opt-qp-pps / no-opt-ref-list-length-pps / no-multi-pass-opt-rps / scenecut-bias=0.05 / hist-threshold=0.03 / no-opt-cu-delta-qp / no-aq-motion / no-hdr10 / no-hdr10-opt / no-dhdr10-opt / no-idr-recovery-sei / analysis-reuse-level=0 / analysis-save-reuse-level=0 / analysis-load-reuse-level=0 / scale-factor=0 / refine-intra=0 / refine-inter=0 / refine-mv=1 / refine-ctu-distortion=0 / no-limit-sao / ctu-info=0 / no-lowpass-dct / refine-analysis-type=0 / copy-pic=1 / max-ausize-factor=1.0 / no-dynamic-refine / no-single-sei / no-hevc-aq / no-svt / no-field / qp-adaptation-range=1.00 / no-scenecut-aware-qpconformance-window-offsets / right=0 / bottom=0 / decoder-max-rate=0 Default : Yes Forced : No Audio #1 ID : 2 Format : Opus Codec ID : A_OPUS Duration : 1 h 57 min Bit rate : 363 kb/s Channel(s) : 6 channels Channel layout : L R C Lb Rb LFE Sampling rate : 48.0 kHz Frame rate : 50.000 FPS (960 SPF) Compression mode : Lossy Stream size : 304 MiB (5%) Language : Japanese Default : Yes Forced : No Audio #2 ID : 3 Format : Opus Codec ID : A_OPUS Duration : 1 h 57 min Bit rate : 325 kb/s Channel(s) : 6 channels Channel layout : L R C Lb Rb LFE Sampling rate : 48.0 kHz Frame rate : 50.000 FPS (960 SPF) Compression mode : Lossy Stream size : 272 MiB (5%) Language : English Default : No Forced : No Text #1 ID : 4 Format : PGS Muxing mode : zlib Codec ID : S_HDMV/PGS Codec ID/Info : Picture based subtitle format used on BDs/HD-DVDs Duration : 26 min 45 s Bit rate : 2 128 b/s Count of elements : 40 Stream size : 417 KiB (0%) Title : Signs Language : English Default : No Forced : No Text #2 ID : 5 Format : PGS Muxing mode : zlib Codec ID : S_HDMV/PGS Codec ID/Info : Picture based subtitle format used on BDs/HD-DVDs Duration : 1 h 56 min Bit rate : 150 kb/s Count of elements : 6211 Stream size : 125 MiB (2%) Title : Full Subtitles Language : English Default : No Forced : No Text #3 ID : 6 Format : ASS Codec ID : S_TEXT/ASS Codec ID/Info : Advanced Sub Station Alpha Duration : 1 h 56 min Bit rate : 68 b/s Count of elements : 1080 Compression mode : Lossless Stream size : 58.1 KiB (0%) Title : English Subtitles [Komorebi-v1] Language : English Default : Yes Forced : Yes Menu 00:00:00.000 : en:Prologue 00:06:00.234 : en:Part 1 00:58:49.108 : en:Part 2 01:51:19.005 : en:Credits (Aimer - I beg you) 01:55:50.777 : en:Preview

File list

  • Fate stay night Movie - Heaven's Feel - II. Lost Butterfly.mkv (5.7 GiB)
I till waiting for a good sub
Thank you for the excellent release!!!