[Yūrei] Fate/stay night Movie: Heaven's Feel - I. Presage Flower [BD 1080p x265 10bit Opus 5.1 Dual Audio]

Category:
Date:
2020-09-15 02:02 UTC
Submitter:
Anonymous
Seeders:
22
Information:
No information.
Leechers:
2
File size:
5.5 GiB
Completed:
476
Info hash:
c6663f526a02c0ab1689923ed427ed0f845d388d
[![102213.jpg](https://i.postimg.cc/KYDmmq9j/102213.jpg)](https://postimg.cc/4KyD55RR) [![Fate-stay-night-Movie-Heaven-s-Feel-I-Presage-Flower-mkv-snapshot-01-18-01-2020-09-14-20-10-36.png](https://i.postimg.cc/T24f2WcV/Fate-stay-night-Movie-Heaven-s-Feel-I-Presage-Flower-mkv-snapshot-01-18-01-2020-09-14-20-10-36.png)](https://postimg.cc/s17twxqx) Format : Matroska Format version : Version 4 File size : 5.53 GiB Duration : 2 h 0 min Overall bit rate : 6 560 kb/s Video ID : 1 Format : HEVC Format/Info : High Efficiency Video Coding Format profile : Main 10@L5@Main Codec ID : V_MPEGH/ISO/HEVC Duration : 2 h 0 min Bit rate : 5 866 kb/s Width : 1 920 pixels Height : 1 080 pixels Display aspect ratio : 16:9 Frame rate mode : Constant Frame rate : 23.976 (24000/1001) FPS Color space : YUV Chroma subsampling : 4:2:0 Bit depth : 10 bits Bits/(Pixel*Frame) : 0.118 Stream size : 4.94 GiB (89%) Writing library : x265 3.4+15-g45f1d01f8:[Windows][MSVC 1927][64 bit] 10bit Encoding settings : cpuid=1111039 / frame-threads=1 / numa-pools=24 / wpp / no-pmode / no-pme / no-psnr / no-ssim / log-level=2 / input-csp=1 / input-res=1920x1080 / interlace=0 / total-frames=173477 / level-idc=0 / high-tier=1 / uhd-bd=0 / ref=6 / no-allow-non-conformance / no-repeat-headers / annexb / no-aud / no-hrd / info / hash=0 / no-temporal-layers / open-gop / min-keyint=23 / keyint=250 / gop-lookahead=0 / bframes=8 / b-adapt=2 / b-pyramid / bframe-bias=0 / rc-lookahead=25 / lookahead-slices=4 / scenecut=40 / hist-scenecut=0 / radl=0 / no-splice / no-intra-refresh / ctu=64 / min-cu-size=8 / rect / no-amp / max-tu-size=32 / tu-inter-depth=1 / tu-intra-depth=1 / limit-tu=0 / rdoq-level=2 / dynamic-rd=0.00 / no-ssim-rd / signhide / no-tskip / nr-intra=0 / nr-inter=0 / no-constrained-intra / strong-intra-smoothing / max-merge=3 / limit-refs=3 / limit-modes / me=3 / subme=3 / merange=57 / temporal-mvp / no-frame-dup / no-hme / weightp / no-weightb / no-analyze-src-pics / deblock=0:0 / no-sao / no-sao-non-deblock / rd=4 / selective-sao=0 / no-early-skip / rskip / no-fast-intra / no-tskip-fast / no-cu-lossless / no-b-intra / no-splitrd-skip / rdpenalty=0 / psy-rd=1.50 / psy-rdoq=4.00 / no-rd-refine / no-lossless / cbqpoffs=0 / crqpoffs=0 / rc=crf / crf=16.0 / qcomp=0.60 / qpstep=4 / stats-write=0 / stats-read=0 / ipratio=1.40 / pbratio=1.30 / aq-mode=3 / aq-strength=1.00 / cutree / zone-count=0 / no-strict-cbr / qg-size=32 / no-rc-grain / qpmax=69 / qpmin=0 / no-const-vbv / sar=0 / overscan=0 / videoformat=5 / range=0 / colorprim=2 / transfer=2 / colormatrix=2 / chromaloc=0 / display-window=0 / cll=0,0 / min-luma=0 / max-luma=1023 / log2-max-poc-lsb=8 / vui-timing-info / vui-hrd-info / slices=1 / no-opt-qp-pps / no-opt-ref-list-length-pps / no-multi-pass-opt-rps / scenecut-bias=0.05 / hist-threshold=0.03 / no-opt-cu-delta-qp / no-aq-motion / no-hdr10 / no-hdr10-opt / no-dhdr10-opt / no-idr-recovery-sei / analysis-reuse-level=0 / analysis-save-reuse-level=0 / analysis-load-reuse-level=0 / scale-factor=0 / refine-intra=0 / refine-inter=0 / refine-mv=1 / refine-ctu-distortion=0 / no-limit-sao / ctu-info=0 / no-lowpass-dct / refine-analysis-type=0 / copy-pic=1 / max-ausize-factor=1.0 / no-dynamic-refine / no-single-sei / no-hevc-aq / no-svt / no-field / qp-adaptation-range=1.00 / no-scenecut-aware-qpconformance-window-offsets / right=0 / bottom=0 / decoder-max-rate=0 Default : Yes Forced : No Audio #1 ID : 2 Format : Opus Codec ID : A_OPUS Duration : 2 h 0 min Bit rate : 316 kb/s Channel(s) : 6 channels Channel layout : L R C Lb Rb LFE Sampling rate : 48.0 kHz Frame rate : 50.000 FPS (960 SPF) Compression mode : Lossy Stream size : 273 MiB (5%) Language : Japanese Default : Yes Forced : No Audio #2 ID : 3 Format : Opus Codec ID : A_OPUS Duration : 2 h 0 min Bit rate : 318 kb/s Channel(s) : 6 channels Channel layout : L R C Lb Rb LFE Sampling rate : 48.0 kHz Frame rate : 50.000 FPS (960 SPF) Compression mode : Lossy Stream size : 274 MiB (5%) Language : English Default : No Forced : No Text #1 ID : 4 Format : PGS Muxing mode : zlib Codec ID : S_HDMV/PGS Codec ID/Info : Picture based subtitle format used on BDs/HD-DVDs Duration : 2 h 0 min Bit rate : 2 728 b/s Count of elements : 178 Stream size : 2.34 MiB (0%) Title : Signs & Songs Language : English Default : No Forced : No Text #2 ID : 5 Format : PGS Muxing mode : zlib Codec ID : S_HDMV/PGS Codec ID/Info : Picture based subtitle format used on BDs/HD-DVDs Duration : 2 h 0 min Bit rate : 106 kb/s Count of elements : 6000 Stream size : 91.0 MiB (2%) Language : English Default : No Forced : No Text #3 ID : 6 Format : ASS Codec ID : S_TEXT/ASS Codec ID/Info : Advanced Sub Station Alpha Duration : 2 h 0 min Bit rate : 226 b/s Count of elements : 1110 Compression mode : Lossless Stream size : 199 KiB (0%) Title : Signs & Songs Language : English Default : No Forced : No Text #4 ID : 7 Format : ASS Codec ID : S_TEXT/ASS Codec ID/Info : Advanced Sub Station Alpha Duration : 2 h 0 min Bit rate : 291 b/s Count of elements : 2217 Compression mode : Lossless Stream size : 257 KiB (0%) Title : Full Subtitles [Kametsu] Language : English Default : Yes Forced : No Menu 00:00:00.000 : en:Prologue 00:04:19.885 : en:Part A 00:09:07.839 : en:Part B 00:12:32.126 : en:Part C 00:19:47.395 : en:Part D 00:26:44.102 : en:Part E 00:29:58.005 : en:Part F 00:34:50.922 : en:Part G 00:40:10.992 : en:Part H 00:47:07.575 : en:Part I 00:52:19.178 : en:Part J 00:59:06.543 : en:Part K 01:07:36.886 : en:Part L 01:15:41.120 : en:Part M 01:20:32.202 : en:Part N 01:24:49.418 : en:Part O 01:30:56.743 : en:Part P 01:38:43.417 : en:Part Q 01:44:11.370 : en:Part R 01:51:28.473 : en:Part S 01:53:39.312 : en:Ending 01:59:21.154 : en:Next

File list

  • Fate stay night Movie - Heaven's Feel - I. Presage Flower.mkv (5.5 GiB)
And again part 3 pls
Thank you for the excellent release!!!