[neoHEVC] Love Live! Sunshine!! The School Idol Movie - Over the Rainbow [BD 1080p x265 HEVC AAC] [Dual Audio]

Category:
Date:
2020-09-14 14:52 UTC
Submitter:
Seeders:
3
Information:
Leechers:
1
File size:
1.9 GiB
Completed:
557
Info hash:
396f1ebc5ea3e0c36830e0d0c1afefa5e3682c55
![](https://i.imgur.com/2dVqnvx.png) *Join **[Discord](https://discord.gg/KYKYZUh)** for Current Projects, Encode-Requests and Seed-Request in case of no available seeds.* **Love Live! Sunshine!! The School Idol Movie: Over the Rainbow** *with `Dual Audio (Jpn/Eng)` and `Eng Subs` in `BD 1080p HEVC`* Reencode of [Team ONIBE] (x264 AVC AC3) to (x265 HEVC AAC) with added English audio track from [KaiDubs]. *Side Note: I created an additional [Signs & Songs] subtitles track from the [Dialog] subtitles track to go with the added [English audio] track.* ![](https://i.imgur.com/4iegWLL.png) **[Trailer](https://www.youtube.com/watch?v=DAz6Gy3DVKU)** ![](https://i.imgur.com/3UxGuWB.png) ![](https://i.imgur.com/ZCtSawZ.png) **[MyAnimeList](https://myanimelist.net/anime/37027/Love_Live_Sunshine_The_School_Idol_Movie__Over_the_Rainbow)** --- **Patch for Default Language / Subtitles Track** This comes with [English audio] and [Signs/Songs subtitles] as default tracks. I included an xDelta Patch for those who rather like [Japanese audio] with [Dialog subtitles] as default. > Simply put all the video files into the Patch folder and run the patch file depending on your OS (for Windows: run '*3.Apply Patch-Windows.bat*'). > Consult '*readme.txt*' if you need help. --- **Synopsis** Following the closure of Uranohoshi Girls' High School, the third-year students—Dia Kurosawa, Kanan Matsuura, and Mari Ohara—have just graduated, leaving Aqours with solely the first and second-years. While searching for a new place the remaining members can use to practice, they decide to visit the new school they will soon enroll in. However, to their surprise, the building seems to be abandoned! It turns out that due to the school board's worries regarding how the freshly transferred Uranohoshi students may burden the clubs, they were instead sent to a branch school. This sets Aqours on a new goal—to prove that Uranohoshi students are serious in their clubs as well. Meanwhile, another problem arises: the third-years have unexpectedly gone missing during their graduation trip! Love Live! Sunshine!! The School Idol Movie: Over the Rainbow revolves around the remaining Aqours members as they venture out to search for their missing seniors and, at the same time, try to figure out a way to change the new school's mind. ![](https://i.imgur.com/AarDfgK.png) --- **Comparison** (avc: source, hevc: encode) *Open links, toggle with mouseclick and check title.* [![](https://i.imgur.com/sPSqa9p.png)](https://slow.pics/c/WkI5X7ue) [![](https://i.imgur.com/FZPlOrH.png)](https://slow.pics/c/PVhhTtys) [![](https://i.imgur.com/TQEC9DQ.png)](https://slow.pics/c/phnrhI3F) --- **Source** ?️ Video, Jpn Audio and Subs: [Team ONIBE] https://nyaa.si/view/1167751 ?️ Eng Audio: [KaiDubs] https://nyaa.si/view/1278285 ? *Subtitles Info: [Team ONIBE] - Format `ASS`* --- **Media Info** ? [Full Mediainfo incl. Encoder Settings](https://pastebin.com/0DLN1eHz) ``` General Unique ID : 285326247120877260639141253676063529373 (0xD6A7D61964B7CD2C501E140A4B18199D) Complete name : Love Live! Sunshine!! - S00E06 - (Movie Over the Rainbow).mkv Format : Matroska Format version : Version 4 File size : 1.85 GiB Duration : 1 h 40 min Overall bit rate : 2 633 kb/s Movie name : Love Live! Sunshine!! - S00E06 - (Movie Over the Rainbow) Encoded date : UTC 2020-09-14 14:07:01 Writing application : mkvmerge v47.0.0 ('Black Flag') 64-bit Writing library : libebml v1.3.10 + libmatroska v1.5.2 / Lavf58.47.100 Attachments : ARVO-REGULAR_0.TTF / CCYuletideLog.ttf / Chewy.ttf / ComingSoon-Regular.ttf / DEKKO-REGULAR.TTF / Dry_Brush.ttf / gadugi.ttf / Gotham-Black.otf / Gotham-BlackIta.otf / Gotham-Bold.otf / Gotham-BoldIta.otf / Gotham-Book.otf / Gotham-BookIta.otf / Gotham-Light.otf / Gotham-LightIta.otf / Gotham-Medium.otf / Gotham-MediumIta.otf / Gotham-Thin.otf / Gotham-ThinIta.otf / Gotham-Ultra.otf / Gotham-UltraIta.otf / Gotham-XLight.otf / Gotham-XLightIta.otf / IndieFlower-Regular.ttf / K26SpeechBubble.ttf / KaoriGel.ttf / KaoriGelBold.ttf / Lato-Black.ttf / Lato-BlackItalic.ttf / Lato-Bold.ttf / Lato-BoldItalic.ttf / LATO-EXTRABOLD.TTF / LATO-EXTRABOLDITALIC.TTF / Lato-Hairline.ttf / Lato-HairlineItalic.ttf / Lato-Heavy.ttf / Lato-HeavyItalic.ttf / Lato-Italic.ttf / Lato-Light.ttf / Lato-LightItalic.ttf / Lato-Medium.ttf / Lato-MediumItalic.ttf / Lato-Regular.ttf / Lato-Semibold.ttf / Lato-SemiboldItalic.ttf / Lato-Thin.ttf / Lato-ThinItalic.ttf / MarkerFelt.ttc / Menuetto.ttf / motoyalmaru.ttf / MSYHBD.TTC / OpenSans-Bold.ttf / OpenSans-BoldItalic.ttf / OPENSANS-EXTRABOLD.TTF / OpenSans-ExtraBoldItalic.ttf / OpenSans-Italic.ttf / OpenSans-Light.ttf / OpenSans-LightItalic.ttf / OpenSans-Regular.ttf / OpenSans-Semibold.ttf / OPENSANS-SEMIBOLDITALIC.TTF / PermanentMarker-Regular.ttf / PT_Sans-Web-Bold.ttf / RALEWAY-BOLD.TTF / RALEWAY-REGULAR.TTF / ROCK.TTF / ROCKB.TTF / ROCKBI.TTF / ROCKI.TTF / seguiemj.ttf Video ID : 1 Format : HEVC Format/Info : High Efficiency Video Coding Format profile : Main 10@L4.1@High Codec ID : V_MPEGH/ISO/HEVC Duration : 1 h 40 min Bit rate : 2 126 kb/s Width : 1 920 pixels Height : 1 080 pixels Display aspect ratio : 16:9 Frame rate mode : Constant Frame rate : 23.976 (24000/1001) FPS Color space : YUV Chroma subsampling : 4:2:0 Bit depth : 10 bits Bits/(Pixel*Frame) : 0.043 Stream size : 1.49 GiB (81%) Writing library : x265 3.2.1+1-b5c86a64bbbe:[Windows][GCC 9.2.0][64 bit] 10bit Encoding settings : <Check Link Above> Default : Yes Forced : No Color range : Limited Color primaries : BT.709 Transfer characteristics : BT.709 Matrix coefficients : BT.709 Audio #1 ID : 2 Format : AAC LC Format/Info : Advanced Audio Codec Low Complexity Codec ID : A_AAC-2 Duration : 1 h 40 min Bit rate : 253 kb/s Channel(s) : 2 channels Channel layout : L R Sampling rate : 48.0 kHz Frame rate : 46.875 FPS (1024 SPF) Compression mode : Lossy Delay relative to video : -43 ms Stream size : 182 MiB (10%) Title : Stereo - ENG (AAC) Language : English Default : Yes Forced : Yes Audio #2 ID : 3 Format : AAC LC Format/Info : Advanced Audio Codec Low Complexity Codec ID : A_AAC-2 Duration : 1 h 40 min Bit rate : 196 kb/s Channel(s) : 2 channels Channel layout : L R Sampling rate : 48.0 kHz Frame rate : 46.875 FPS (1024 SPF) Compression mode : Lossy Delay relative to video : -43 ms Stream size : 141 MiB (7%) Title : Stereo - JPN (AAC) Language : Japanese Default : No Forced : No Text #1 ID : 4 Format : ASS Codec ID : S_TEXT/ASS Codec ID/Info : Advanced Sub Station Alpha Duration : 1 h 36 min Bit rate : 116 b/s Count of elements : 668 Compression mode : Lossless Stream size : 81.9 KiB (0%) Title : Signs & Songs - ENG (ASS) Language : English Default : Yes Forced : Yes Text #2 ID : 5 Format : ASS Codec ID : S_TEXT/ASS Codec ID/Info : Advanced Sub Station Alpha Duration : 1 h 39 min Bit rate : 200 b/s Count of elements : 1905 Compression mode : Lossless Stream size : 146 KiB (0%) Title : Dialog - ENG (ASS) Language : English Default : No Forced : No ```

File list

neoborn (uploader)

User
For everyone looking for the two **Love Live! Sunshine!!** seasons in low-size HEVC, may I suggest these: **Single Audio:** [YuushaNi] https://nyaa.si/view/1256294 **Dual Audio:** [cleo] https://www.animencodes.com/ Unfortunately the [cleo] version is not on Nyaa yet but you can grab it at their website through DDL if you don't mind the add-galore and clicking a couple of times until you get to your download.
can you upload the english caption (for eng dub) from kai dubs release UwU

neoborn (uploader)

User
**@Lockemind_MY** .srt subtitles from [KaiDubs]. You have to time these to this video as [KaiDubs] has the funimation intro. It's something around -7000ms. https://drive.google.com/file/d/11jNyM5k0scXGq2x-MbAQod_pEfBD_s8a/view?usp=sharing
For some reason, there are 6 fonts missing from Team ONIBE's release (including the fonts for the default dialogue), and there are also an additional 70 unused fonts attached. The original Team ONIBE fonts shared on their blog: https://mega.nz/file/KDZnyQKR#BAvEtWEV03Npj1CvSAiTwH-ZJ_m5vYrOt0eaNN1A39k