[neoHEVC] Altair: A Record of Battles [BD 1080p x265 HEVC AAC] Shoukoku no Altair

Category:
Date:
2020-09-14 10:32 UTC
Submitter:
Seeders:
13
Information:
Leechers:
1
File size:
7.5 GiB
Completed:
1501
Info hash:
4134e838b795614b14742f1c2beec2a735d86ae8
![](https://i.imgur.com/2dVqnvx.png) *Join **[Discord](https://discord.gg/47Q7FdB54e)** for Current Projects, Encode-Requests and Seed-Request in case of no available seeds.* **Altair: A Record of Battles / Shoukoku no Altair** *with `Jpn Dub` and `Eng Subs` in `BD 1080p HEVC`* Reencode of [Moozzi2] (x264 AVC FLAC) to (x265 HEVC AAC) with added subtitles from [HorribleSubs]. ![](https://i.imgur.com/4iegWLL.png) **[Trailer](https://www.youtube.com/watch?v=U3N6o3OnbF8)** ![](https://i.imgur.com/3UxGuWB.png) ![](https://i.imgur.com/ZCtSawZ.png) **[MyAnimeList](https://myanimelist.net/anime/34547/Shoukoku_no_Altair)** --- **Synopsis** Tughril Mahmut is a young pasha serving on the Divan of the Türkiye Stratocracy. The clouds of war are gathering over his country due to the threat of an aggressive Empire. With the Divan split between warmongers and the pacifists, Mahmut begins his quest to keep the peace at any cost. As he finds himself deeper and deeper in the politics of the ancient world, new enemies and allies surface. Who will prevail? What will Mahmut do if war proves to be inevitable? ![](https://i.imgur.com/KYOeQoB.png) --- **Comparison** (avc: source, hevc: encode) *Open links, toggle with mouseclick and check title.* [![](https://i.imgur.com/2Mv1o34.png)](https://slow.pics/c/Z62ZNZCb) [![](https://i.imgur.com/aa9IHG2.png)](https://slow.pics/c/wXydLc3M) [![](https://i.imgur.com/0pKei5X.png)](https://slow.pics/c/kJ7FTBRm) --- **Source** ?️ Video and Audio: [Moozzi2] https://nyaa.si/view/1149076 ?️ Subs: [zza] https://nyaa.si/view/1111296 ? *Subtitles Info: [HorribleSubs / WEB] - Format `ASS`* --- **Media Info** ``` General Unique ID : 228292358956001381446500654711640698764 (0xABBF824F0EA0E5701F7082E637D02F8C) Complete name : Shoukoku no Altair - S01E01.mkv Format : Matroska Format version : Version 4 File size : 332 MiB Duration : 24 min 4 s Overall bit rate : 1 927 kb/s Movie name : Shoukoku no Altair - S01E01 Encoded date : UTC 2020-09-14 07:31:13 Writing application : mkvmerge v47.0.0 ('Black Flag') 64-bit Writing library : libebml v1.3.10 + libmatroska v1.5.2 / Lavf58.29.100 Attachments : OpenSans-Semibold.ttf Video ID : 1 Format : HEVC Format/Info : High Efficiency Video Coding Format profile : Main 10@L4.1@High Codec ID : V_MPEGH/ISO/HEVC Duration : 24 min 4 s Bit rate : 1 694 kb/s Width : 1 920 pixels Height : 1 080 pixels Display aspect ratio : 16:9 Frame rate mode : Constant Frame rate : 23.976 (24000/1001) FPS Color space : YUV Chroma subsampling : 4:2:0 Bit depth : 10 bits Bits/(Pixel*Frame) : 0.034 Stream size : 292 MiB (88%) Writing library : x265 3.2.1+1-b5c86a64bbbe:[Windows][GCC 9.2.0][64 bit] 10bit Encoding settings : cpuid=1111039 / frame-threads=2 / numa-pools=4 / wpp / no-pmode / no-pme / no-psnr / no-ssim / log-level=2 / input-csp=1 / input-res=1920x1080 / interlace=0 / total-frames=0 / level-idc=41 / high-tier=1 / uhd-bd=0 / ref=5 / no-allow-non-conformance / no-repeat-headers / annexb / no-aud / no-hrd / info / hash=0 / no-temporal-layers / open-gop / min-keyint=24 / keyint=240 / gop-lookahead=0 / bframes=8 / b-adapt=2 / b-pyramid / bframe-bias=0 / rc-lookahead=25 / lookahead-slices=4 / scenecut=40 / radl=0 / no-splice / no-intra-refresh / ctu=64 / min-cu-size=8 / rect / no-amp / max-tu-size=32 / tu-inter-depth=1 / tu-intra-depth=1 / limit-tu=0 / rdoq-level=2 / dynamic-rd=0.00 / no-ssim-rd / signhide / no-tskip / nr-intra=0 / nr-inter=0 / no-constrained-intra / strong-intra-smoothing / max-merge=3 / limit-refs=3 / limit-modes / me=3 / subme=3 / merange=57 / temporal-mvp / no-hme / weightp / no-weightb / no-analyze-src-pics / deblock=0:0 / sao / no-sao-non-deblock / rd=4 / selective-sao=4 / no-early-skip / rskip / no-fast-intra / no-tskip-fast / no-cu-lossless / no-b-intra / no-splitrd-skip / rdpenalty=0 / psy-rd=0.00 / psy-rdoq=1.00 / no-rd-refine / no-lossless / cbqpoffs=0 / crqpoffs=0 / rc=crf / crf=21.0 / qcomp=0.60 / qpstep=4 / stats-write=0 / stats-read=0 / vbv-maxrate=50000 / vbv-bufsize=50000 / vbv-init=0.9 / crf-max=0.0 / crf-min=0.0 / ipratio=1.40 / pbratio=1.30 / aq-mode=3 / aq-strength=0.80 / cutree / zone-count=0 / no-strict-cbr / qg-size=32 / no-rc-grain / qpmax=69 / qpmin=0 / no-const-vbv / sar=1 / overscan=0 / videoformat=5 / range=0 / colorprim=1 / transfer=1 / colormatrix=1 / chromaloc=0 / display-window=0 / cll=0,0 / min-luma=0 / max-luma=1023 / log2-max-poc-lsb=8 / vui-timing-info / vui-hrd-info / slices=1 / no-opt-qp-pps / no-opt-ref-list-length-pps / no-multi-pass-opt-rps / scenecut-bias=0.05 / no-opt-cu-delta-qp / no-aq-motion / no-hdr / no-hdr-opt / no-dhdr10-opt / no-idr-recovery-sei / analysis-reuse-level=5 / scale-factor=0 / refine-intra=0 / refine-inter=0 / refine-mv=1 / refine-ctu-distortion=0 / no-limit-sao / ctu-info=0 / no-lowpass-dct / refine-analysis-type=0 / copy-pic=1 / max-ausize-factor=1.0 / no-dynamic-refine / no-single-sei / no-hevc-aq / no-svt / no-field / qp-adaptation-range=1.00 Default : Yes Forced : No Color range : Limited Color primaries : BT.709 Transfer characteristics : BT.709 Matrix coefficients : BT.709 Audio ID : 2 Format : AAC LC Format/Info : Advanced Audio Codec Low Complexity Codec ID : A_AAC-2 Duration : 24 min 4 s Bit rate : 229 kb/s Channel(s) : 2 channels Channel layout : L R Sampling rate : 48.0 kHz Frame rate : 46.875 FPS (1024 SPF) Compression mode : Lossy Delay relative to video : -43 ms Stream size : 39.5 MiB (12%) Title : Stereo - JPN (AAC) Language : Japanese Default : Yes Forced : No Text ID : 3 Format : ASS Codec ID : S_TEXT/ASS Codec ID/Info : Advanced Sub Station Alpha Duration : 23 min 58 s Bit rate : 96 b/s Count of elements : 297 Compression mode : Lossless Stream size : 17.0 KiB (0%) Title : Dialog - ENG (ASS) Language : English Default : Yes Forced : No ```

File list

  • [neoHEVC] Shoukoku no Altair [BD 1080p x265 HEVC AAC]
    • Shoukoku no Altair - S01E01.mkv (331.8 MiB)
    • Shoukoku no Altair - S01E02.mkv (292.7 MiB)
    • Shoukoku no Altair - S01E03.mkv (268.7 MiB)
    • Shoukoku no Altair - S01E04.mkv (271.1 MiB)
    • Shoukoku no Altair - S01E05.mkv (277.5 MiB)
    • Shoukoku no Altair - S01E06.mkv (263.7 MiB)
    • Shoukoku no Altair - S01E07.mkv (345.5 MiB)
    • Shoukoku no Altair - S01E08.mkv (277.4 MiB)
    • Shoukoku no Altair - S01E09.mkv (322.3 MiB)
    • Shoukoku no Altair - S01E10.mkv (281.1 MiB)
    • Shoukoku no Altair - S01E11.mkv (280.2 MiB)
    • Shoukoku no Altair - S01E12.mkv (371.0 MiB)
    • Shoukoku no Altair - S01E13.mkv (259.9 MiB)
    • Shoukoku no Altair - S01E14.mkv (336.0 MiB)
    • Shoukoku no Altair - S01E15.mkv (348.0 MiB)
    • Shoukoku no Altair - S01E16.mkv (370.9 MiB)
    • Shoukoku no Altair - S01E17.mkv (363.0 MiB)
    • Shoukoku no Altair - S01E18.mkv (371.8 MiB)
    • Shoukoku no Altair - S01E19.mkv (323.5 MiB)
    • Shoukoku no Altair - S01E20.mkv (399.0 MiB)
    • Shoukoku no Altair - S01E21.mkv (394.2 MiB)
    • Shoukoku no Altair - S01E22.mkv (338.1 MiB)
    • Shoukoku no Altair - S01E23.mkv (305.7 MiB)
    • Shoukoku no Altair - S01E24.mkv (290.0 MiB)
Waiting for someone share ddl, :v:v
please seed or add ddl
Thank you to all seeders keeping this alive till now!