[PTBR] Seitokai Yakuindomo Season 1 BD + Ovas 2020 ver.

Category:
Date:
2020-09-10 22:48 UTC
Submitter:
Seeders:
2
Information:
No information.
Leechers:
0
File size:
7.7 GiB
Completed:
110
Info hash:
e5b476979c8deb733eb8c02b735b965c23af611d
BD de Seitokai Yakuindomo usando como base a Tradução da Hacchi, ninguém merece ver esse anime na ver. TV!! Não se esqueçam de instalar todas as fonts (todas as fonts q uso no win10.rar) no seu PC para a legenda ficar bonita! Divirta-se e não se esqueça de semear. :) Agradecimento especial ao Hacchi pela tradu original da ver. TV e DVD!! <3 MediaInfo General Unique ID : 238457029203482108826805569006061399544 (0xB365273E9ECF8A2B95BCA4DA8E82ADF8) Complete name : I:\Windows 7\Meus videos 2\Seitokai Yakuindomo\Seitokai Yakuindomo Blu-Ray_01.mkv Format : Matroska Format version : Version 4 File size : 469 MiB Duration : 23 min 50 s Overall bit rate mode : Variable Overall bit rate : 2 750 kb/s Movie name : [NanoAlchemist] Seitokai Yakuindomo - OVA 3 [BDRip 1920x1080 x264 FLAC] Encoded date : UTC 2016-09-12 21:57:09 Writing application : mkvmerge v7.0.0 (‘Where We Going’) 64bit built on Jun 9 2014 15:16:27 Writing library : libebml v1.3.0 + libmatroska v1.4.1 Attachments : agenda_.ttf / BAKESBR.TTF / Bellerose.ttf / BodoniStd.otf / CALIBRI.TTF / CAMBRIA.TTC / CAMBRIAB.TTF / CAMBRIAI.TTF / CAMBRIAZ.TTF / chemrea.ttf / Festival.ttf / gnuolane free.ttf / Interstate-Black.ttf / Montara-Gothic.otf / regenera.ttf / Street_Corner_Bold.ttf / Surface-Medium.otf / zrnic__.ttf Video ID : 2 Format : AVC Format/Info : Advanced Video Codec Format profile : High 10@L5.1 Format settings : CABAC / 16 Ref Frames Format settings, CABAC : Yes Format settings, ReFrames : 16 frames Codec ID : V_MPEG4/ISO/AVC Duration : 23 min 37 s Bit rate : 1 370 kb/s Width : 1 280 pixels Height : 720 pixels Display aspect ratio : 16:9 Frame rate mode : Constant Frame rate : 23.976 (23976/1000) FPS Color space : YUV Chroma subsampling : 4:2:0 Bit depth : 10 bits Scan type : Progressive Bits/(Pixel*Frame) : 0.062 Stream size : 231 MiB (49%) Writing library : x264 core 130 r2273 b3065e6 Encoding settings : cabac=1 / ref=16 / deblock=1:1:1 / analyse=0x3:0x133 / me=umh / subme=10 / psy=1 / psy_rd=0.40:0.00 / mixed_ref=1 / me_range=24 / chroma_me=1 / trellis=2 / 8x8dct=1 / cqm=0 / deadzone=21,11 / fast_pskip=0 / chroma_qp_offset=-2 / threads=12 / lookahead_threads=3 / sliced_threads=0 / nr=0 / decimate=1 / interlaced=0 / bluray_compat=0 / constrained_intra=0 / bframes=10 / b_pyramid=2 / b_adapt=2 / b_bias=0 / direct=3 / weightb=1 / open_gop=0 / weightp=2 / keyint=250 / keyint_min=23 / scenecut=40 / intra_refresh=0 / rc_lookahead=60 / rc=crf / mbtree=1 / crf=20.0 / qcomp=0.60 / qpmin=0 / qpmax=81 / qpstep=4 / ip_ratio=1.40 / aq=1:0.60 Language : English Default : Yes Forced : No Audio #1 ID : 3 Format : FLAC Format/Info : Free Lossless Audio Codec Codec ID : A_FLAC Duration : 23 min 36 s Bit rate mode : Variable Bit rate : 693 kb/s Channel(s) : 2 channels Channel layout : L R Sampling rate : 48.0 kHz Frame rate : 10.417 FPS (4608 SPF) Bit depth : 16 bits Compression mode : Lossless Delay relative to video : 83 ms Stream size : 117 MiB (25%) Title : 2.0 FLAC (Censored) Language : Japanese Default : Yes Forced : No Audio #2 ID : 4 Format : FLAC Format/Info : Free Lossless Audio Codec Codec ID : A_FLAC Duration : 23 min 36 s Bit rate mode : Variable Bit rate : 693 kb/s Channel(s) : 2 channels Channel layout : L R Sampling rate : 48.0 kHz Frame rate : 10.417 FPS (4608 SPF) Bit depth : 16 bits Compression mode : Lossless Delay relative to video : 83 ms Stream size : 117 MiB (25%) Title : 2.0 FLAC (Uncensored) Language : Japanese Default : No Forced : No Text #1 ID : 1 Format : ASS Codec ID : S_TEXT/ASS Codec ID/Info : Advanced Sub Station Alpha Duration : 23 min 24 s Bit rate : 218 b/s Count of elements : 545 Compression mode : Lossless Stream size : 37.4 KiB (0%) Title : English Default : No Forced : No Text #2 ID : 5 Format : ASS Codec ID : S_TEXT/ASS Codec ID/Info : Advanced Sub Station Alpha Duration : 23 min 39 s Bit rate : 182 b/s Count of elements : 518 Compression mode : Lossless Stream size : 31.6 KiB (0%) Title : Mike copy Default : Yes Forced : No Menu 00:00:00.000 : en:Prologue 00:01:51.236 : en:Opening 00:03:05.977 : en:Episode 00:21:51.018 : en:Ending 00:23:20.983 : en:Preview SYD S1 BD + Ovas Legendas https://mir.cr/MVAHLI1J mais mirrors https://mir.cr/1OEX7EDA

File list

  • Seitokai Yakuindomo
    • Seitokai Yakuindomo Blu-Ray_01.mkv (469.0 MiB)
    • Seitokai Yakuindomo Blu-Ray_02.mkv (334.7 MiB)
    • Seitokai Yakuindomo Blu-Ray_03.mkv (379.6 MiB)
    • Seitokai Yakuindomo Blu-Ray_04.mkv (343.5 MiB)
    • Seitokai Yakuindomo Blu-Ray_05.mkv (339.8 MiB)
    • Seitokai Yakuindomo Blu-Ray_06.mkv (544.1 MiB)
    • Seitokai Yakuindomo Blu-Ray_07.mkv (381.5 MiB)
    • Seitokai Yakuindomo Blu-Ray_08.mkv (354.9 MiB)
    • Seitokai Yakuindomo Blu-Ray_09.ass (55.9 KiB)
    • Seitokai Yakuindomo Blu-Ray_09.mkv (401.9 MiB)
    • Seitokai Yakuindomo Blu-Ray_10.mkv (349.7 MiB)
    • Seitokai Yakuindomo Blu-Ray_11.mkv (347.7 MiB)
    • Seitokai Yakuindomo Blu-Ray_12.mkv (335.0 MiB)
    • Seitokai Yakuindomo Blu-Ray_13.mkv (372.2 MiB)
    • Seitokai Yakuindomo Blu-Ray_14 OVA_01.mkv (345.7 MiB)
    • Seitokai Yakuindomo Blu-Ray_15 OVA_02.mkv (362.8 MiB)
    • Seitokai Yakuindomo Blu-Ray_16 OVA_03.mkv (304.9 MiB)
    • Seitokai Yakuindomo Blu-Ray_17 OVA_04.mkv (349.3 MiB)
    • Seitokai Yakuindomo Blu-Ray_18 OVA_05.mkv (342.1 MiB)
    • Seitokai Yakuindomo Blu-Ray_19 OVA_06.mkv (305.5 MiB)
    • Seitokai Yakuindomo Blu-Ray_20 OVA_07.mkv (317.9 MiB)
    • Seitokai Yakuindomo Blu-Ray_21 OVA_08.mkv (330.3 MiB)
    • folder (OVAs).jpg (43.5 KiB)
    • folder.jpg (44.8 KiB)
    • folder2.jpg (83.5 KiB)
    • todas as fonts q uso no win10.rar (263.6 MiB)
seed pls? o download n começa ;_;