[naiyas] Hellsing Ultimate + The Dawn [BD1080P HEVC10 AAC Dual Audio]v0

Category:
Date:
2020-09-10 08:14 UTC
Submitter:
Seeders:
14
Information:
Leechers:
1
File size:
14.2 GiB
Completed:
1251
Info hash:
ae4ba22426a7749d5b2463ee211516d6656fc328
![alt text](https://i.slow.pics/Oi69DuCx.png) --- ***Video source:*** [***hevcfrank***](https://nyaa.si/view/1189431) ***The Dawn subtitles*** **source:** [**_[Final8]_**](https://nyaa.si/view/409820) ***Audio, & Subs [Hellsing Ultimate]*** **source:** [***SCY***](https://nyaa.si/view/1120222) --- #### ***For the Large encode:*** [***Hellsing Ultimate***](https://nyaa.si/view/1280309) --- #### ***Please seed after downloading to keep this alive.*** ❤ --- ##### ***Synopsis: The vampire Alucard, his master Sir Integra Fairbrook Wingates Hellsing, and his newly sired ward Seras Victoria, try to protect England from a war-crazed SS-Major who seeks to start an eternal war with his vampire army.*** #### **General info:** ``` Unique ID : 218213933308183184440018475992459937164 (0xA42A798F619C7ECA5A8C9FA36552858C) Complete name : Hellsing Ultimate + The Dawn [BD1080P HEVC10 AAC] Format : Matroska Format version : Version 4 / Version 2 File size : 1.39 GiB Duration : 50 min 18 s Overall bit rate : 3 966 kb/s Movie name : Hellsing Ultimate - I Encoded date : UTC 2020-09-09 14:25:57 Writing application : mkvmerge v49.0.0 ('Sick Of Losing Soulmates') 64-bit Writing library : libebml v1.4.0 + libmatroska v1.6.1 Attachments : GandhiSans-Bold_A.otf Video ID : 1 Format : HEVC Format/Info : High Efficiency Video Coding Format profile : Main 10@L4@Main Codec ID : V_MPEGH/ISO/HEVC Duration : 50 min 18 s Bit rate : 1 501 kb/s Width : 1 920 pixels Height : 1 080 pixels Display aspect ratio : 16:9 Frame rate mode : Constant Frame rate : 23.976 (24000/1001) FPS Color space : YUV Chroma subsampling : 4:2:0 Bit depth : 10 bits Bits/(Pixel*Frame) : 0.030 Stream size : 540 MiB (38%) Writing library : x265 2.9:[Linux][GCC 7.3.0][64 bit] 10bit Encoding settings : cpuid=1049071 / frame-threads=3 / wpp / no-pmode / no-pme / no-psnr / no-ssim / log-level=2 / input-csp=1 / input-res=1920x1080 / interlace=0 / total-frames=0 / level-idc=0 / high-tier=1 / uhd-bd=0 / ref=3 / no-allow-non-conformance / no-repeat-headers / annexb / no-aud / no-hrd / info / hash=0 / no-temporal-layers / open-gop / min-keyint=24 / keyint=240 / gop-lookahead=0 / bframes=4 / b-adapt=0 / b-pyramid / bframe-bias=0 / rc-lookahead=15 / lookahead-slices=6 / scenecut=40 / radl=0 / no-intra-refresh / ctu=64 / min-cu-size=8 / no-rect / no-amp / max-tu-size=32 / tu-inter-depth=1 / tu-intra-depth=1 / limit-tu=0 / rdoq-level=0 / dynamic-rd=0.00 / no-ssim-rd / signhide / no-tskip / nr-intra=0 / nr-inter=0 / no-constrained-intra / strong-intra-smoothing / max-merge=2 / limit-refs=3 / no-limit-modes / me=1 / subme=2 / merange=57 / temporal-mvp / weightp / no-weightb / no-analyze-src-pics / deblock=0:0 / sao / no-sao-non-deblock / rd=2 / no-early-skip / rskip / fast-intra / no-tskip-fast / no-cu-lossless / no-b-intra / no-splitrd-skip / rdpenalty=0 / psy-rd=2.00 / psy-rdoq=0.00 / no-rd-refine / no-lossless / cbqpoffs=0 / crqpoffs=0 / rc=abr / bitrate=1500 / qcomp=0.60 / qpstep=4 / stats-write=0 / stats-read=2 / cplxblur=20.0 / qblur=0.5 / ipratio=1.40 / pbratio=1.30 / aq-mode=1 / aq-strength=1.00 / cutree / zone-count=0 / no-strict-cbr / qg-size=32 / no-rc-grain / qpmax=69 / qpmin=0 / no-const-vbv / sar=1 / overscan=0 / videoformat=5 / range=0 / colorprim=1 / transfer=1 / colormatrix=1 / chromaloc=0 / display-window=0 / max-cll=0,0 / min-luma=0 / max-luma=1023 / log2-max-poc-lsb=8 / vui-timing-info / vui-hrd-info / slices=1 / no-opt-qp-pps / no-opt-ref-list-length-pps / no-multi-pass-opt-rps / scenecut-bias=0.05 / no-opt-cu-delta-qp / no-aq-motion / no-hdr / no-hdr-opt / no-dhdr10-opt / no-idr-recovery-sei / analysis-reuse-level=5 / scale-factor=0 / refine-intra=0 / refine-inter=0 / refine-mv=0 / no-limit-sao / ctu-info=0 / no-lowpass-dct / refine-mv-type=0 / copy-pic=1 / max-ausize-factor=1.0 / no-dynamic-refine / no-single-sei Language : Japanese Default : Yes Forced : No Color range : Limited Color primaries : BT.709 Transfer characteristics : BT.709 Matrix coefficients : BT.709 Audio #1 ID : 2 Format : AAC LC Format/Info : Advanced Audio Codec Low Complexity Codec ID : A_AAC-2 Duration : 50 min 18 s Bit rate : 1 142 kb/s Channel(s) : 6 channels Channel layout : C L R Ls Rs LFE Sampling rate : 48.0 kHz Frame rate : 46.875 FPS (1024 SPF) Compression mode : Lossy Delay relative to video : -7 ms Stream size : 411 MiB (29%) Title : English 5.1 AAC-LC Language : English Default : Yes Forced : No Audio #2 ID : 3 Format : AAC LC Format/Info : Advanced Audio Codec Low Complexity Codec ID : A_AAC-2 Duration : 50 min 18 s Bit rate : 953 kb/s Channel(s) : 6 channels Channel layout : C L R Ls Rs LFE Sampling rate : 48.0 kHz Frame rate : 46.875 FPS (1024 SPF) Compression mode : Lossy Delay relative to video : -7 ms Stream size : 343 MiB (24%) Title : Japanese 5.1 AAC-LC Language : Japanese Default : No Forced : No Audio #3 ID : 4 Format : AAC LC Format/Info : Advanced Audio Codec Low Complexity Codec ID : A_AAC-2 Duration : 50 min 18 s Bit rate : 365 kb/s Channel(s) : 2 channels Channel layout : L R Sampling rate : 48.0 kHz Frame rate : 46.875 FPS (1024 SPF) Compression mode : Lossy Delay relative to video : -7 ms Stream size : 131 MiB (9%) Title : English Commentary 2.0 AAC-LC Language : English Default : No Forced : No Text ID : 5 Format : ASS Codec ID : S_TEXT/ASS Codec ID/Info : Advanced Sub Station Alpha Duration : 47 min 10 s Bit rate : 77 b/s Count of elements : 472 Compression mode : Lossless Stream size : 26.9 KiB (0%) Title : Full Subtitles [Kametsu modified] Language : English Default : Yes Forced : No Menu 00:00:00.000 : :Prologue 00:03:29.126 : :Part A 00:16:06.215 : :Part B 00:23:57.227 : :Part C 00:37:06.349 : :Part D 00:47:26.844 : :Ending

File list

  • Hellsing Ultimate + The Dawn
    • Hellsing The Dawn
      • Hellsing Ultimate - The Dawn I [BD1080P HEVC10 FLAC].mkv (139.9 MiB)
      • Hellsing Ultimate - The Dawn II [BD1080P HEVC10 FLAC] .mkv (112.6 MiB)
      • Hellsing Ultimate - The Dawn II [BD1080P HEVC10 FLAC]I.mkv (169.0 MiB)
    • Hellsing Ultimate - 01 - [BD1080P HEVC10 AAC].mkv (1.4 GiB)
    • Hellsing Ultimate - 02 - [BD1080P HEVC10 AAC].mkv (1.2 GiB)
    • Hellsing Ultimate - 03 - [BD1080P HEVC10 AAC].mkv (1.3 GiB)
    • Hellsing Ultimate - 04 - [BD1080P HEVC10 AAC].mkv (1.6 GiB)
    • Hellsing Ultimate - 05 - [BD1080P HEVC10 AAC].mkv (1.2 GiB)
    • Hellsing Ultimate - 06 - [BD1080P HEVC10 AAC].mkv (1.2 GiB)
    • Hellsing Ultimate - 07 - [BD1080P HEVC10 AAC].mkv (1.3 GiB)
    • Hellsing Ultimate - 08 - [BD10080P HEVC10 AAC].mkv (1.4 GiB)
    • Hellsing Ultimate - 09 - [BD1080P HEVC10 AAC].mkv (1.3 GiB)
    • Hellsing Ultimate - 10 - [BD1080P HEVC10 AAC].mkv (1.9 GiB)
I never got to watch The Dawn. Need to change!!

naiyas (uploader)

User
Hellsing Ultimate - 08 - [BD10080P HEVC10 AAC].mkv (1.4 GiB) crap 👀 i ddn't notice that
Man, I didint even know this was a prequel, Now I have to watch this and watch ultimate from the beginning lol!