[Yūrei] Mahou Shoujo Madoka★Magica Movie 3: Hangyaku no Monogatari (Puella Magi Madoka Magica the Movie: Rebellion) [BD 1080p x265 10bit Opus 5.1 Dual Audio]

Category:
Date:
2020-09-09 13:17 UTC
Submitter:
Anonymous
Seeders:
36
Information:
No information.
Leechers:
0
File size:
8.6 GiB
Completed:
1213
Info hash:
dfd92566f356cd817be1d3b8104fc6bb98edd813
[![42265.jpg](https://i.postimg.cc/j2jBC348/42265.jpg)](https://postimg.cc/0MLVBf3m) [![Mahou-Shoujo-Madoka-Magica-Movie-3-Hangyaku-no-Monogatari-mkv-snapshot-01-41-21-2020-09-09-00-35.png](https://i.postimg.cc/Ssc6mhP6/Mahou-Shoujo-Madoka-Magica-Movie-3-Hangyaku-no-Monogatari-mkv-snapshot-01-41-21-2020-09-09-00-35.png)](https://postimg.cc/vgHgvpbT) Format : Matroska Format version : Version 4 File size : 8.64 GiB Duration : 1 h 56 min Overall bit rate : 10.6 Mb/s Video ID : 1 Format : HEVC Format/Info : High Efficiency Video Coding Format profile : Main 10@L5@Main Codec ID : V_MPEGH/ISO/HEVC Duration : 1 h 56 min Bit rate : 9 864 kb/s Width : 1 920 pixels Height : 1 080 pixels Display aspect ratio : 16:9 Frame rate mode : Constant Frame rate : 23.976 (24000/1001) FPS Color space : YUV Chroma subsampling : 4:2:0 Bit depth : 10 bits Bits/(Pixel*Frame) : 0.198 Stream size : 8.04 GiB (93%) Writing library : x265 3.4+15-g45f1d01f8:[Windows][MSVC 1927][64 bit] 10bit Encoding settings : cpuid=1111039 / frame-threads=1 / numa-pools=24 / wpp / no-pmode / no-pme / no-psnr / no-ssim / log-level=2 / input-csp=1 / input-res=1920x1080 / interlace=0 / total-frames=167767 / level-idc=0 / high-tier=1 / uhd-bd=0 / ref=6 / no-allow-non-conformance / no-repeat-headers / annexb / no-aud / no-hrd / info / hash=0 / no-temporal-layers / open-gop / min-keyint=23 / keyint=250 / gop-lookahead=0 / bframes=8 / b-adapt=2 / b-pyramid / bframe-bias=0 / rc-lookahead=25 / lookahead-slices=4 / scenecut=40 / hist-scenecut=0 / radl=0 / no-splice / no-intra-refresh / ctu=64 / min-cu-size=8 / rect / no-amp / max-tu-size=32 / tu-inter-depth=1 / tu-intra-depth=1 / limit-tu=0 / rdoq-level=2 / dynamic-rd=0.00 / no-ssim-rd / signhide / no-tskip / nr-intra=0 / nr-inter=0 / no-constrained-intra / strong-intra-smoothing / max-merge=3 / limit-refs=3 / limit-modes / me=3 / subme=3 / merange=57 / temporal-mvp / no-frame-dup / no-hme / weightp / no-weightb / no-analyze-src-pics / deblock=-1:-1 / no-sao / no-sao-non-deblock / rd=4 / selective-sao=0 / no-early-skip / rskip / no-fast-intra / no-tskip-fast / no-cu-lossless / no-b-intra / no-splitrd-skip / rdpenalty=0 / psy-rd=1.50 / psy-rdoq=4.00 / no-rd-refine / no-lossless / cbqpoffs=0 / crqpoffs=0 / rc=crf / crf=16.0 / qcomp=0.60 / qpstep=4 / stats-write=0 / stats-read=0 / ipratio=1.40 / pbratio=1.30 / aq-mode=3 / aq-strength=1.00 / cutree / zone-count=0 / no-strict-cbr / qg-size=32 / no-rc-grain / qpmax=69 / qpmin=0 / no-const-vbv / sar=0 / overscan=0 / videoformat=5 / range=0 / colorprim=2 / transfer=2 / colormatrix=2 / chromaloc=0 / display-window=0 / cll=0,0 / min-luma=0 / max-luma=1023 / log2-max-poc-lsb=8 / vui-timing-info / vui-hrd-info / slices=1 / no-opt-qp-pps / no-opt-ref-list-length-pps / no-multi-pass-opt-rps / scenecut-bias=0.05 / hist-threshold=0.03 / no-opt-cu-delta-qp / no-aq-motion / no-hdr10 / no-hdr10-opt / no-dhdr10-opt / no-idr-recovery-sei / analysis-reuse-level=0 / analysis-save-reuse-level=0 / analysis-load-reuse-level=0 / scale-factor=0 / refine-intra=0 / refine-inter=0 / refine-mv=1 / refine-ctu-distortion=0 / no-limit-sao / ctu-info=0 / no-lowpass-dct / refine-analysis-type=0 / copy-pic=1 / max-ausize-factor=1.0 / no-dynamic-refine / no-single-sei / no-hevc-aq / no-svt / no-field / qp-adaptation-range=1.00 / no-scenecut-aware-qpconformance-window-offsets / right=0 / bottom=0 / decoder-max-rate=0 Default : Yes Forced : No Audio #1 ID : 2 Format : Opus Codec ID : A_OPUS Duration : 1 h 56 min Bit rate : 375 kb/s Channel(s) : 6 channels Channel layout : L R C Lb Rb LFE Sampling rate : 48.0 kHz Frame rate : 50.000 FPS (960 SPF) Compression mode : Lossy Stream size : 313 MiB (4%) Language : Japanese Default : Yes Forced : No Audio #2 ID : 3 Format : Opus Codec ID : A_OPUS Duration : 1 h 56 min Bit rate : 357 kb/s Channel(s) : 6 channels Channel layout : L R C Lb Rb LFE Sampling rate : 48.0 kHz Frame rate : 50.000 FPS (960 SPF) Compression mode : Lossy Delay relative to video : 15 s 0 ms Stream size : 297 MiB (3%) Writing library : Lavc57.89.100 libopus Language : English Default : No Forced : No Text #1 ID : 4 Format : ASS Codec ID : S_TEXT/ASS Codec ID/Info : Advanced Sub Station Alpha Duration : 1 h 55 min Bit rate : 4 647 b/s Count of elements : 27728 Compression mode : Lossless Stream size : 3.85 MiB (0%) Language : English Default : Yes Forced : No Text #2 ID : 5 Format : ASS Codec ID : S_TEXT/ASS Codec ID/Info : Advanced Sub Station Alpha Duration : 1 h 54 min Bit rate : 114 b/s Count of elements : 1386 Compression mode : Lossless Stream size : 95.7 KiB (0%) Language : French Default : No Forced : No Text #3 ID : 6 Format : ASS Codec ID : S_TEXT/ASS Codec ID/Info : Advanced Sub Station Alpha Duration : 1 h 54 min Bit rate : 110 b/s Count of elements : 1386 Compression mode : Lossless Stream size : 92.8 KiB (0%) Language : Spanish Default : No Forced : No Menu 00:00:00.000 : en:(01)00:00:00:000 00:04:42.198 : en:(02)00:04:42:198 00:07:34.662 : en:(03)00:07:34:662 00:09:09.382 : en:(04)00:09:09:382 00:13:28.766 : en:(05)00:13:28:766 00:16:50.009 : en:(06)00:16:50:009 00:21:20.279 : en:(07)00:21:20:279 00:27:49.167 : en:(08)00:27:49:167 00:30:31.412 : en:(09)00:30:31:412 00:33:23.001 : en:(10)00:33:23:001 00:36:27.310 : en:(11)00:36:27:310 00:39:55.393 : en:(12)00:39:55:393 00:41:37.161 : en:(13)00:41:37:161 00:46:03.552 : en:(14)00:46:03:552 00:51:26.958 : en:(15)00:51:26:958 00:54:45.699 : en:(16)00:54:45:699 00:57:24.524 : en:(17)00:57:24:524 01:00:21.117 : en:(18)01:00:21:117 01:02:40.089 : en:(19)01:02:40:089 01:07:35.217 : en:(20)01:07:35:217 01:12:12.828 : en:(21)01:12:12:828 01:18:25.534 : en:(22)01:18:25:534 01:23:50.650 : en:(23)01:23:50:650 01:25:34.128 : en:(24)01:25:34:128 01:31:27.940 : en:(25)01:31:27:940 01:33:33.691 : en:(26)01:33:33:691 01:40:50.043 : en:(27)01:40:50:043 01:44:59.209 : en:(28)01:44:59:209 01:50:05.557 : en:(29)01:50:05:557 01:55:13.197 : en:(30)01:55:13:197 01:56:36.489 : en:(31)01:56:36:489

File list

  • Mahou Shoujo Madoka★Magica Movie 3 - Hangyaku no Monogatari.mkv (8.6 GiB)
At least Mami can go to school and be happy in the end. Need Magia Record BD encode.