[Yūrei] Mahou Shoujo Madoka★Magica Movie 2: Eien no Monogatari (Puella Magi Madoka Magica the Movie Part 2: Eternal) [BD 1080p x265 10bit Opus 5.1 Dual Audio]

Category:
Date:
2020-09-09 03:54 UTC
Submitter:
Anonymous
Seeders:
22
Information:
No information.
Leechers:
1
File size:
5.3 GiB
Completed:
805
Info hash:
67ae0a7bc88ad4210e2ae5b74f08f0f48c77419a
[![42265.jpg](https://i.postimg.cc/j2jBC348/42265.jpg)](https://postimg.cc/0MLVBf3m) [![Mahou-Shoujo-Madoka-Magica-Movie-2-Eien-no-Monogatari-mkv-snapshot-00-16-49-2020-09-08-22-51-58.png](https://i.postimg.cc/wvwGKcYD/Mahou-Shoujo-Madoka-Magica-Movie-2-Eien-no-Monogatari-mkv-snapshot-00-16-49-2020-09-08-22-51-58.png)](https://postimg.cc/YGm3YF9S) Format : Matroska Format version : Version 4 File size : 5.32 GiB Duration : 1 h 51 min Overall bit rate : 6 865 kb/s Video ID : 1 Format : HEVC Format/Info : High Efficiency Video Coding Format profile : Main 10@L5@Main Codec ID : V_MPEGH/ISO/HEVC Duration : 1 h 51 min Bit rate : 6 133 kb/s Width : 1 920 pixels Height : 1 080 pixels Display aspect ratio : 16:9 Frame rate mode : Constant Frame rate : 23.976 (24000/1001) FPS Color space : YUV Chroma subsampling : 4:2:0 Bit depth : 10 bits Bits/(Pixel*Frame) : 0.123 Stream size : 4.76 GiB (89%) Writing library : x265 3.4+15-g45f1d01f8:[Windows][MSVC 1927][64 bit] 10bit Encoding settings : cpuid=1111039 / frame-threads=1 / numa-pools=24 / wpp / no-pmode / no-pme / no-psnr / no-ssim / log-level=2 / input-csp=1 / input-res=1920x1080 / interlace=0 / total-frames=159726 / level-idc=0 / high-tier=1 / uhd-bd=0 / ref=6 / no-allow-non-conformance / no-repeat-headers / annexb / no-aud / no-hrd / info / hash=0 / no-temporal-layers / open-gop / min-keyint=23 / keyint=250 / gop-lookahead=0 / bframes=8 / b-adapt=2 / b-pyramid / bframe-bias=0 / rc-lookahead=25 / lookahead-slices=4 / scenecut=40 / hist-scenecut=0 / radl=0 / no-splice / no-intra-refresh / ctu=64 / min-cu-size=8 / rect / no-amp / max-tu-size=32 / tu-inter-depth=1 / tu-intra-depth=1 / limit-tu=0 / rdoq-level=2 / dynamic-rd=0.00 / no-ssim-rd / signhide / no-tskip / nr-intra=0 / nr-inter=0 / no-constrained-intra / strong-intra-smoothing / max-merge=3 / limit-refs=3 / limit-modes / me=3 / subme=3 / merange=57 / temporal-mvp / no-frame-dup / no-hme / weightp / no-weightb / no-analyze-src-pics / deblock=-1:-1 / no-sao / no-sao-non-deblock / rd=4 / selective-sao=0 / no-early-skip / rskip / no-fast-intra / no-tskip-fast / no-cu-lossless / no-b-intra / no-splitrd-skip / rdpenalty=0 / psy-rd=1.50 / psy-rdoq=4.00 / no-rd-refine / no-lossless / cbqpoffs=0 / crqpoffs=0 / rc=crf / crf=16.0 / qcomp=0.60 / qpstep=4 / stats-write=0 / stats-read=0 / ipratio=1.40 / pbratio=1.30 / aq-mode=3 / aq-strength=1.00 / cutree / zone-count=0 / no-strict-cbr / qg-size=32 / no-rc-grain / qpmax=69 / qpmin=0 / no-const-vbv / sar=0 / overscan=0 / videoformat=5 / range=0 / colorprim=2 / transfer=2 / colormatrix=2 / chromaloc=0 / display-window=0 / cll=0,0 / min-luma=0 / max-luma=1023 / log2-max-poc-lsb=8 / vui-timing-info / vui-hrd-info / slices=1 / no-opt-qp-pps / no-opt-ref-list-length-pps / no-multi-pass-opt-rps / scenecut-bias=0.05 / hist-threshold=0.03 / no-opt-cu-delta-qp / no-aq-motion / no-hdr10 / no-hdr10-opt / no-dhdr10-opt / no-idr-recovery-sei / analysis-reuse-level=0 / analysis-save-reuse-level=0 / analysis-load-reuse-level=0 / scale-factor=0 / refine-intra=0 / refine-inter=0 / refine-mv=1 / refine-ctu-distortion=0 / no-limit-sao / ctu-info=0 / no-lowpass-dct / refine-analysis-type=0 / copy-pic=1 / max-ausize-factor=1.0 / no-dynamic-refine / no-single-sei / no-hevc-aq / no-svt / no-field / qp-adaptation-range=1.00 / no-scenecut-aware-qpconformance-window-offsets / right=0 / bottom=0 / decoder-max-rate=0 Default : Yes Forced : No Audio #1 ID : 2 Format : Opus Codec ID : A_OPUS Duration : 1 h 51 min Bit rate : 369 kb/s Channel(s) : 6 channels Channel layout : L R C Lb Rb LFE Sampling rate : 48.0 kHz Frame rate : 50.000 FPS (960 SPF) Compression mode : Lossy Stream size : 293 MiB (5%) Language : Japanese Default : Yes Forced : No Audio #2 ID : 3 Format : Opus Codec ID : A_OPUS Duration : 1 h 51 min Bit rate : 354 kb/s Channel(s) : 6 channels Channel layout : L R C Lb Rb LFE Sampling rate : 48.0 kHz Frame rate : 50.000 FPS (960 SPF) Compression mode : Lossy Stream size : 281 MiB (5%) Writing library : Lavc57.89.100 libopus Language : English Default : No Forced : No Text #1 ID : 4 Format : ASS Codec ID : S_TEXT/ASS Codec ID/Info : Advanced Sub Station Alpha Duration : 1 h 50 min Bit rate : 121 b/s Count of elements : 1506 Compression mode : Lossless Stream size : 98.2 KiB (0%) Language : English Default : Yes Forced : No Text #2 ID : 5 Format : ASS Codec ID : S_TEXT/ASS Codec ID/Info : Advanced Sub Station Alpha Duration : 1 h 50 min Bit rate : 125 b/s Count of elements : 1393 Compression mode : Lossless Stream size : 102 KiB (0%) Language : Spanish Default : No Forced : No Text #3 ID : 6 Format : ASS Codec ID : S_TEXT/ASS Codec ID/Info : Advanced Sub Station Alpha Duration : 1 h 50 min Bit rate : 127 b/s Count of elements : 1391 Compression mode : Lossless Stream size : 103 KiB (0%) Language : Italian Default : No Forced : No Menu 00:00:00.000 : en:(01)00:00:00:000 00:04:09.457 : en:(02)00:04:09:457 00:05:48.556 : en:(03)00:05:48:556 00:08:25.421 : en:(04)00:08:25:421 00:14:16.188 : en:(05)00:14:16:188 00:17:54.531 : en:(06)00:17:54:531 00:27:03.622 : en:(07)00:27:03:622 00:30:02.383 : en:(08)00:30:02:383 00:36:59.008 : en:(09)00:36:59:008 00:40:09.990 : en:(10)00:40:09:990 00:46:52.851 : en:(11)00:46:52:851 00:49:20.540 : en:(12)00:49:20:540 00:54:57.294 : en:(13)00:54:57:294 00:56:29.386 : en:(14)00:56:29:386 00:58:43.686 : en:(15)00:58:43:686 01:05:34.805 : en:(16)01:05:34:805 01:09:23.492 : en:(17)01:09:23:492 01:13:13.180 : en:(18)01:13:13:180 01:17:01.158 : en:(19)01:17:01:158 01:21:54.910 : en:(20)01:21:54:910 01:26:35.815 : en:(21)01:26:35:815 01:32:41.931 : en:(22)01:32:41:931 01:37:14.620 : en:(23)01:37:14:620 01:39:15.032 : en:(24)01:39:15:032 01:41:52.314 : en:(25)01:41:52:314 01:43:26.033 : en:(26)01:43:26:033 01:44:33.016 : en:(27)01:44:33:016 01:49:28.562 : en:(28)01:49:28:562 01:51:01.112 : en:(29)01:51:01:112

File list

  • Mahou Shoujo Madoka★Magica Movie 2 - Eien no Monogatari.mkv (5.3 GiB)
Thanks! Are you going to do the 3rd movie too?