[Yūrei] Mahou Shoujo Madoka★Magica Movie 1: Hajimari no Monogatari (Puella Magi Madoka Magica the Movie Part 1: Beginnings) [BD 1080p x265 10bit Opus 5.1 Dual Audio]

Category:
Date:
2020-09-09 02:18 UTC
Submitter:
Anonymous
Seeders:
23
Information:
No information.
Leechers:
1
File size:
4.9 GiB
Completed:
864
Info hash:
88fbd1d9a775d0232efbb26da1804fe1703cb58f
[![42331.jpg](https://i.postimg.cc/5NWpyR9n/42331.jpg)](https://postimg.cc/z3pTPpgg) [![Mahou-Shoujo-Madoka-Magica-Movie-1-Hajimari-no-Monogatari-mkv-snapshot-01-09-03-2020-09-08-21-17.png](https://i.postimg.cc/Dz0PRV5y/Mahou-Shoujo-Madoka-Magica-Movie-1-Hajimari-no-Monogatari-mkv-snapshot-01-09-03-2020-09-08-21-17.png)](https://postimg.cc/Y4cFmsJJ) Format : Matroska Format version : Version 4 File size : 4.91 GiB Duration : 2 h 11 min Overall bit rate : 5 361 kb/s Video ID : 1 Format : HEVC Format/Info : High Efficiency Video Coding Format profile : Main 10@L5@Main Codec ID : V_MPEGH/ISO/HEVC Duration : 2 h 11 min Bit rate : 4 639 kb/s Width : 1 920 pixels Height : 1 080 pixels Display aspect ratio : 16:9 Frame rate mode : Constant Frame rate : 23.976 (24000/1001) FPS Color space : YUV Chroma subsampling : 4:2:0 Bit depth : 10 bits Bits/(Pixel*Frame) : 0.093 Stream size : 4.25 GiB (87%) Writing library : x265 3.4+15-g45f1d01f8:[Windows][MSVC 1927][64 bit] 10bit Encoding settings : cpuid=1111039 / frame-threads=1 / numa-pools=24 / wpp / no-pmode / no-pme / no-psnr / no-ssim / log-level=2 / input-csp=1 / input-res=1920x1080 / interlace=0 / total-frames=188665 / level-idc=0 / high-tier=1 / uhd-bd=0 / ref=6 / no-allow-non-conformance / no-repeat-headers / annexb / no-aud / no-hrd / info / hash=0 / no-temporal-layers / open-gop / min-keyint=23 / keyint=250 / gop-lookahead=0 / bframes=8 / b-adapt=2 / b-pyramid / bframe-bias=0 / rc-lookahead=25 / lookahead-slices=4 / scenecut=40 / hist-scenecut=0 / radl=0 / no-splice / no-intra-refresh / ctu=64 / min-cu-size=8 / rect / no-amp / max-tu-size=32 / tu-inter-depth=1 / tu-intra-depth=1 / limit-tu=0 / rdoq-level=2 / dynamic-rd=0.00 / no-ssim-rd / signhide / no-tskip / nr-intra=0 / nr-inter=0 / no-constrained-intra / strong-intra-smoothing / max-merge=3 / limit-refs=3 / limit-modes / me=3 / subme=3 / merange=57 / temporal-mvp / no-frame-dup / no-hme / weightp / no-weightb / no-analyze-src-pics / deblock=-1:-1 / no-sao / no-sao-non-deblock / rd=4 / selective-sao=0 / no-early-skip / rskip / no-fast-intra / no-tskip-fast / no-cu-lossless / no-b-intra / no-splitrd-skip / rdpenalty=0 / psy-rd=1.50 / psy-rdoq=4.00 / no-rd-refine / no-lossless / cbqpoffs=0 / crqpoffs=0 / rc=crf / crf=16.0 / qcomp=0.60 / qpstep=4 / stats-write=0 / stats-read=0 / ipratio=1.40 / pbratio=1.30 / aq-mode=3 / aq-strength=1.00 / cutree / zone-count=0 / no-strict-cbr / qg-size=32 / no-rc-grain / qpmax=69 / qpmin=0 / no-const-vbv / sar=0 / overscan=0 / videoformat=5 / range=0 / colorprim=2 / transfer=2 / colormatrix=2 / chromaloc=0 / display-window=0 / cll=0,0 / min-luma=0 / max-luma=1023 / log2-max-poc-lsb=8 / vui-timing-info / vui-hrd-info / slices=1 / no-opt-qp-pps / no-opt-ref-list-length-pps / no-multi-pass-opt-rps / scenecut-bias=0.05 / hist-threshold=0.03 / no-opt-cu-delta-qp / no-aq-motion / no-hdr10 / no-hdr10-opt / no-dhdr10-opt / no-idr-recovery-sei / analysis-reuse-level=0 / analysis-save-reuse-level=0 / analysis-load-reuse-level=0 / scale-factor=0 / refine-intra=0 / refine-inter=0 / refine-mv=1 / refine-ctu-distortion=0 / no-limit-sao / ctu-info=0 / no-lowpass-dct / refine-analysis-type=0 / copy-pic=1 / max-ausize-factor=1.0 / no-dynamic-refine / no-single-sei / no-hevc-aq / no-svt / no-field / qp-adaptation-range=1.00 / no-scenecut-aware-qpconformance-window-offsets / right=0 / bottom=0 / decoder-max-rate=0 Default : Yes Forced : No Audio #1 ID : 2 Format : Opus Codec ID : A_OPUS Duration : 2 h 11 min Bit rate : 366 kb/s Channel(s) : 6 channels Channel layout : L R C Lb Rb LFE Sampling rate : 48.0 kHz Frame rate : 50.000 FPS (960 SPF) Compression mode : Lossy Stream size : 343 MiB (7%) Language : Japanese Default : Yes Forced : No Audio #2 ID : 3 Format : Opus Codec ID : A_OPUS Duration : 2 h 11 min Bit rate : 347 kb/s Channel(s) : 6 channels Channel layout : L R C Lb Rb LFE Sampling rate : 48.0 kHz Frame rate : 50.000 FPS (960 SPF) Compression mode : Lossy Stream size : 326 MiB (6%) Writing library : Lavc57.89.100 libopus Language : English Default : No Forced : No Text #1 ID : 4 Format : ASS Codec ID : S_TEXT/ASS Codec ID/Info : Advanced Sub Station Alpha Duration : 2 h 10 min Bit rate : 128 b/s Count of elements : 2024 Compression mode : Lossless Stream size : 123 KiB (0%) Language : English Default : Yes Forced : No Text #2 ID : 5 Format : ASS Codec ID : S_TEXT/ASS Codec ID/Info : Advanced Sub Station Alpha Duration : 2 h 10 min Bit rate : 115 b/s Count of elements : 1712 Compression mode : Lossless Stream size : 110 KiB (0%) Language : French Default : No Forced : No Text #3 ID : 6 Format : ASS Codec ID : S_TEXT/ASS Codec ID/Info : Advanced Sub Station Alpha Duration : 2 h 10 min Bit rate : 116 b/s Count of elements : 1719 Compression mode : Lossless Stream size : 111 KiB (0%) Language : Spanish Default : No Forced : No Menu 00:00:00.000 : en:(01)00:00:00:000 00:03:04.350 : en:(02)00:03:04:350 00:04:43.449 : en:(03)00:04:43:449 00:06:03.571 : en:(04)00:06:03:571 00:10:37.261 : en:(05)00:10:37:261 00:12:28.414 : en:(06)00:12:28:414 00:19:05.060 : en:(07)00:19:05:060 00:22:29.973 : en:(08)00:22:29:973 00:23:54.683 : en:(09)00:23:54:683 00:26:18.743 : en:(10)00:26:18:743 00:29:34.230 : en:(11)00:29:34:230 00:34:32.945 : en:(12)00:34:32:945 00:36:44.368 : en:(13)00:36:44:368 00:39:37.249 : en:(14)00:39:37:249 00:44:26.372 : en:(15)00:44:26:372 00:45:32.104 : en:(16)00:45:32:104 00:48:58.060 : en:(17)00:48:58:060 00:52:12.587 : en:(18)00:52:12:587 00:56:29.969 : en:(19)00:56:29:969 00:58:39.516 : en:(20)00:58:39:516 01:04:07.426 : en:(21)01:04:07:426 01:11:05.177 : en:(22)01:11:05:177 01:20:24.319 : en:(23)01:20:24:319 01:24:47.999 : en:(24)01:24:47:999 01:26:57.378 : en:(25)01:26:57:378 01:31:58.721 : en:(26)01:31:58:721 01:34:21.530 : en:(27)01:34:21:530 01:43:15.022 : en:(28)01:43:15:022 01:46:22.834 : en:(29)01:46:22:834 01:51:43.363 : en:(30)01:51:43:363 01:56:15.760 : en:(31)01:56:15:760 02:03:33.531 : en:(32)02:03:33:531 02:05:48.415 : en:(33)02:05:48:415 02:11:07.860 : en:(34)02:11:07:860

File list

  • Mahou Shoujo Madoka★Magica Movie 1 - Hajimari no Monogatari.mkv (4.9 GiB)