[naiyas] Cop Craft [BD 1080P HEVC10 TrueHD + FLAC Dual Audio]

Category:
Date:
2020-09-08 10:31 UTC
Submitter:
Seeders:
5
Information:
naiyas#2050 at Discord
Leechers:
1
File size:
16.9 GiB
Completed:
229
Info hash:
454f1b0b6308ecc435bc37f465c093b113ffb15b
![alt text](https://i.slow.pics/Sewwv5h3.png) ---- ***Video source:*** [***VCB-Studio***](https://nyaa.si/view/1269113) ***Subs source:*** [**_[BlurayDesuYo]_**](https://nyaa.si/view/1277223) ***Audio source:*** [***npz / USBD***](https://nyaa.si/view/1263653) ---- #### **Plot Summary:** 15 years ago, an unknown hyperspace gate opened over the Pacific. Beyond this gate lies Reto Semaani, a strange alternate world where fairies and demons live. San Teresa City — a city where over two million immigrants live from both worlds. ----- **Please seed this after downloading to keep this torrent alive** ❤ **If you encountered any errors or time shifting delay problems let me know i'll fix it right away.** --- **Media info:** ``` General Unique ID : 191271336682379003032878024300519174356 (0x8FE584FCC4FEA7EBA9D59442FBFB30D4) Complete name : Cop Craft Format : Matroska Format version : Version 4 / Version 2 File size : 1.41 GiB Duration : 23 min 42 s Overall bit rate mode : Variable Overall bit rate : 8 528 kb/s Movie name : 01 Cop Show, Witch Craft Encoded date : UTC 2020-09-08 04:32:53 Writing application : mkvmerge v49.0.0 ('Sick Of Losing Soulmates') 64-bit Writing library : libebml v1.4.0 + libmatroska v1.6.1 Cover : Yes Attachments : cover.jpg / KOZGOPRO-BOLD.OTF / SOURCESANSPRO-BOLD.OTF / SOURCESANSPRO-BOLDIT.OTF / SOURCESANSPRO-LIGHT.OTF / AMSTERDAMGRAFFITI.TTF / HELLODENVERDISPLAYBOLD-BOLD.TTF Video ID : 1 Format : HEVC Format/Info : High Efficiency Video Coding Format profile : Main 10@L4@Main Codec ID : V_MPEGH/ISO/HEVC Duration : 23 min 41 s Bit rate : 4 591 kb/s Width : 1 920 pixels Height : 1 080 pixels Display aspect ratio : 16:9 Frame rate mode : Constant Frame rate : 23.976 (24000/1001) FPS Color space : YUV Chroma subsampling : 4:2:0 Bit depth : 10 bits Bits/(Pixel*Frame) : 0.092 Stream size : 778 MiB (54%) Writing library : x265 3.3+2-g5d7a6e2a0+28:[Windows][GCC 9.3.0][64 bit] Yuuki 10bit Encoding settings : rc=crf / crf=15.0000 / qcomp=0.65 / qpstep=4 / stats-write=0 / stats-read=0 / no-lossless / no-cu-lossless / aq-mode=3 / aq-strength=0.80 / cbqpoffs=-2 / crqpoffs=-2 / ipratio=1.40 / pbratio=1.20 / psy-rd=1.60 / psy-rdoq=0.80 / deblock=-1:-1 / ref=4 / limit-refs=1 / limit-modes / bframes=6 / b-adapt=2 / bframe-bias=0 / b-pyramid / b-intra / weightp / weightb / min-keyint=1 / max-keyint=360 / rc-lookahead=80 / gop-lookahead=0 / scenecut=40 / hist-scenecut=0 / radl=0 / max-cu-size=32 / min-cu-size=8 / me=3 / subme=5 / merange=38 / rdoq-level=2 / rd=5 / rdpenalty=0 / dynamic-rd=0.00 / no-rd-refine / ----- / cutree / no-sao / rect / no-amp / no-open-gop / wpp / no-pmode / no-pme / no-psnr / no-ssim / nr-intra=0 / nr-inter=0 / no-constrained-intra / no-strong-intra-smoothing / max-tu-size=32 / tu-inter-depth=3 / tu-intra-depth=3 / limit-tu=4 / qg-size=8 / qpmax=69 / qpmin=0 / ----- / cpuid=1111039 / frame-threads=4 / numa-pools=+ / log-level=2 / input-csp=1 / input-res=1920x1080 / interlace=0 / level-idc=0 / high-tier=1 / uhd-bd=0 / no-allow-non-conformance / no-repeat-headers / no-aud / no-hrd / info / hash=0 / no-temporal-layers / lookahead-slices=0 / no-splice / no-intra-refresh / no-ssim-rd / signhide / no-tskip / max-merge=4 / temporal-mvp / no-frame-dup / no-hme / no-analyze-src-pics / no-sao-non-deblock / selective-sao=0 / no-early-skip / rskip / no-fast-intra / no-tskip-fast / no-splitrd-skip / zone-count=0 / no-strict-cbr / no-rc-grain / no-const-vbv / sar=0 / overscan=0 / videoformat=5 / range=0 / colorprim=2 / transfer=2 / colormatrix=2 / chromaloc=0 / display-window=0 / cll=0,0 / min-luma=0 / max-luma=1023 / log2-max-poc-lsb=8 / vui-timing-info / vui-hrd-info / slices=1 / no-opt-qp-pps / no-opt-ref-list-length-pps / no-multi-pass-opt-rps / scenecut-bias=0.00 / hist-threshold=0.01 / no-opt-cu-delta-qp / no-aq-motion / no-hdr10 / no-hdr10-opt / no-dhdr10-opt / no-idr-recovery-sei / analysis-reuse-level=0 / analysis-save-reuse-level=0 / analysis-load-reuse-level=0 / scale-factor=0 / refine-intra=0 / refine-inter=0 / refine-mv=1 / refine-ctu-distortion=0 / no-limit-sao / ctu-info=0 / no-lowpass-dct / refine-analysis-type=0 / copy-pic=1 / max-ausize-factor=1.0 / no-dynamic-refine / no-single-sei / no-hevc-aq / no-svt / no-field / qp-adaptation-range=1.00 / no-scenecut-aware-qpconformance-window-offsets / right=0 / bottom=0 Language : Japanese Default : Yes Forced : No Audio #1 ID : 2 ID in the original source medi : 4352 (0x1100) Format : MLP FBA Format/Info : Meridian Lossless Packing FBA Commercial name : Dolby TrueHD Codec ID : A_TRUEHD Duration : 23 min 41 s Bit rate mode : Variable Bit rate : 1 543 kb/s Maximum bit rate : 2 949 kb/s Channel(s) : 6 channels Channel layout : L R C LFE Ls Rs Sampling rate : 48.0 kHz Frame rate : 1 200.000 FPS (40 SPF) Compression mode : Lossless Stream size : 261 MiB (18%) Title : Surround 5.1 Language : English Default : Yes Forced : No Original source medium : Blu-ray Audio #2 ID : 3 Format : FLAC Format/Info : Free Lossless Audio Codec Codec ID : A_FLAC Duration : 23 min 41 s Bit rate mode : Variable Bit rate : 1 354 kb/s Channel(s) : 2 channels Channel layout : L R Sampling rate : 48.0 kHz Frame rate : 11.719 FPS (4096 SPF) Bit depth : 24 bits Compression mode : Lossless Stream size : 229 MiB (16%) Writing library : libFLAC 1.3.2 (UTC 2017-01-01) Language : Japanese Default : No Forced : No Audio #3 ID : 4 ID in the original source medi : 4354 (0x1102) Format : MLP FBA Format/Info : Meridian Lossless Packing FBA Commercial name : Dolby TrueHD Codec ID : A_TRUEHD Duration : 23 min 42 s Bit rate mode : Variable Bit rate : 893 kb/s Maximum bit rate : 1 221 kb/s Channel(s) : 2 channels Channel layout : L R Sampling rate : 48.0 kHz Frame rate : 1 200.000 FPS (40 SPF) Compression mode : Lossless Stream size : 151 MiB (10%) Title : English Commentary Language : English Default : No Forced : No Original source medium : Blu-ray Text ID : 5 Format : ASS Codec ID : S_TEXT/ASS Codec ID/Info : Advanced Sub Station Alpha Duration : 23 min 33 s Bit rate : 2 305 b/s Count of elements : 1953 Compression mode : Lossless Stream size : 398 KiB (0%) Title : BlurayDesuYo Language : English Default : Yes Forced : No Menu 00:00:00.000 : en:Chapter 01 00:04:33.982 : en:Chapter 02 00:06:03.946 : en:Chapter 03 00:13:15.961 : en:Chapter 04 00:22:05.991 : en:Chapter 05 00:23:35.997 : en:Chapter 06

File list

  • Cop Craft [BD 1920x1080 10bit FLAC][DUAL-AUDIO]
    • CDs
    • Extras
      • Cop Craft - NCED (BD 1920x1080 10bit FLAC).mkv (77.0 MiB)
      • Cop Craft - NCOP (BD 1920x1080 10bit FLAC).mkv (142.0 MiB)
      • Cop Craft [Menu].mkv (42.6 MiB)
    • Cop Craft - 01 - Cop Show, Witch Craft.mkv (1.4 GiB)
    • Cop Craft - 02 - Dragnet Mirage.mkv (1.2 GiB)
    • Cop Craft - 03 - Midnight Train.mkv (1.4 GiB)
    • Cop Craft - 04 - In the Air Tonight.mkv (1.2 GiB)
    • Cop Craft - 05 - Lonesome Vampire.mkv (1.2 GiB)
    • Cop Craft - 06 - Need For Speed.mkv (1.3 GiB)
    • Cop Craft - 07 - Girls on Ice.mkv (1.2 GiB)
    • Cop Craft - 08 - Smells Like Toon Spirits.mkv (1.2 GiB)
    • Cop Craft - 09 - A King Maker.mkv (1.3 GiB)
    • Cop Craft - 10 - Cock Robin, John Doe.mkv (1.4 GiB)
    • Cop Craft - 11 - Transitional Crises.mkv (1.3 GiB)
    • Cop Craft - 12 - Two Worlds, Two Justices.mkv (1.2 GiB)
This is good!!!

naiyas (uploader)

User
### I'm glad to hear that @SomaHeir