[Yūrei] Mob Psycho 100 II [BD 1080p x265 10bit Opus Dual Audio]

Category:
Date:
2020-09-04 01:24 UTC
Submitter:
Anonymous
Seeders:
0
Information:
No information.
Leechers:
0
File size:
17.2 GiB
Completed:
108
Info hash:
42fa111b317d605d731a1ea67e67fac654e78b64
[![226825.jpg](https://i.postimg.cc/05nNcBK4/226825.jpg)](https://postimg.cc/DmWFz5gQ) [![S02-E01-Ripped-Apart-Someone-Is-Watching-mkv-snapshot-05-37-2020-09-03-16-13-37.png](https://i.postimg.cc/ZqNRHY6P/S02-E01-Ripped-Apart-Someone-Is-Watching-mkv-snapshot-05-37-2020-09-03-16-13-37.png)](https://postimg.cc/KKZxv2q4) [![OVA-Spirits-and-Such-Company-Trip-A-Journey-That-Mends-the-Heart-and-Heals-the-Soul-mkv-snapshot.png](https://i.postimg.cc/1tZzjxKk/OVA-Spirits-and-Such-Company-Trip-A-Journey-That-Mends-the-Heart-and-Heals-the-Soul-mkv-snapshot.png)](https://postimg.cc/McdxnFN5) Format : Matroska Format version : Version 4 File size : 1.32 GiB Duration : 24 min 12 s Overall bit rate : 7 780 kb/s Video ID : 1 Format : HEVC Format/Info : High Efficiency Video Coding Format profile : Main 10@L5@Main Codec ID : V_MPEGH/ISO/HEVC Duration : 24 min 12 s Bit rate : 7 174 kb/s Width : 1 920 pixels Height : 1 080 pixels Display aspect ratio : 16:9 Frame rate mode : Constant Frame rate : 23.976 (24000/1001) FPS Color space : YUV Chroma subsampling : 4:2:0 Bit depth : 10 bits Bits/(Pixel*Frame) : 0.144 Stream size : 1.21 GiB (92%) Writing library : x265 3.4+15-g45f1d01f8:[Windows][MSVC 1927][64 bit] 10bit Encoding settings : cpuid=1111039 / frame-threads=1 / numa-pools=24 / wpp / no-pmode / no-pme / no-psnr / no-ssim / log-level=2 / input-csp=1 / input-res=1920x1080 / interlace=0 / total-frames=34820 / level-idc=0 / high-tier=1 / uhd-bd=0 / ref=6 / no-allow-non-conformance / no-repeat-headers / annexb / no-aud / no-hrd / info / hash=0 / no-temporal-layers / open-gop / min-keyint=23 / keyint=250 / gop-lookahead=0 / bframes=8 / b-adapt=2 / b-pyramid / bframe-bias=0 / rc-lookahead=25 / lookahead-slices=4 / scenecut=40 / hist-scenecut=0 / radl=0 / no-splice / no-intra-refresh / ctu=64 / min-cu-size=8 / rect / no-amp / max-tu-size=32 / tu-inter-depth=1 / tu-intra-depth=1 / limit-tu=0 / rdoq-level=2 / dynamic-rd=0.00 / no-ssim-rd / signhide / no-tskip / nr-intra=0 / nr-inter=0 / no-constrained-intra / strong-intra-smoothing / max-merge=3 / limit-refs=3 / limit-modes / me=3 / subme=3 / merange=57 / temporal-mvp / no-frame-dup / no-hme / weightp / no-weightb / no-analyze-src-pics / deblock=-1:-1 / sao / no-sao-non-deblock / rd=4 / selective-sao=4 / no-early-skip / rskip / no-fast-intra / no-tskip-fast / no-cu-lossless / no-b-intra / no-splitrd-skip / rdpenalty=0 / psy-rd=1.50 / psy-rdoq=2.00 / no-rd-refine / no-lossless / cbqpoffs=0 / crqpoffs=0 / rc=crf / crf=16.0 / qcomp=0.60 / qpstep=4 / stats-write=0 / stats-read=0 / ipratio=1.40 / pbratio=1.30 / aq-mode=3 / aq-strength=1.00 / cutree / zone-count=0 / no-strict-cbr / qg-size=32 / no-rc-grain / qpmax=69 / qpmin=0 / no-const-vbv / sar=0 / overscan=0 / videoformat=5 / range=0 / colorprim=2 / transfer=2 / colormatrix=2 / chromaloc=0 / display-window=0 / cll=0,0 / min-luma=0 / max-luma=1023 / log2-max-poc-lsb=8 / vui-timing-info / vui-hrd-info / slices=1 / no-opt-qp-pps / no-opt-ref-list-length-pps / no-multi-pass-opt-rps / scenecut-bias=0.05 / hist-threshold=0.03 / no-opt-cu-delta-qp / no-aq-motion / no-hdr10 / no-hdr10-opt / no-dhdr10-opt / no-idr-recovery-sei / analysis-reuse-level=0 / analysis-save-reuse-level=0 / analysis-load-reuse-level=0 / scale-factor=0 / refine-intra=0 / refine-inter=0 / refine-mv=1 / refine-ctu-distortion=0 / limit-sao / ctu-info=0 / no-lowpass-dct / refine-analysis-type=0 / copy-pic=1 / max-ausize-factor=1.0 / no-dynamic-refine / no-single-sei / no-hevc-aq / no-svt / no-field / qp-adaptation-range=1.00 / no-scenecut-aware-qpconformance-window-offsets / right=0 / bottom=0 / decoder-max-rate=0 Default : Yes Forced : No Audio #1 ID : 2 Format : Opus Codec ID : A_OPUS Duration : 24 min 11 s Bit rate : 188 kb/s Channel(s) : 2 channels Channel layout : L R Sampling rate : 48.0 kHz Frame rate : 50.001 FPS (960 SPF) Compression mode : Lossy Delay relative to video : 67 ms Stream size : 32.5 MiB (2%) Writing library : Lavc58.86.101 libopus Language : Japanese Default : Yes Forced : No Audio #2 ID : 3 Format : Opus Codec ID : A_OPUS Duration : 24 min 11 s Bit rate : 371 kb/s Channel(s) : 6 channels Channel layout : L R C Lb Rb LFE Sampling rate : 48.0 kHz Frame rate : 50.001 FPS (960 SPF) Compression mode : Lossy Delay relative to video : 67 ms Stream size : 64.2 MiB (5%) Writing library : Lavc58.86.101 libopus Language : English Default : No Forced : No Text #1 ID : 4 Format : PGS Muxing mode : zlib Codec ID : S_HDMV/PGS Codec ID/Info : Picture based subtitle format used on BDs/HD-DVDs Duration : 24 min 8 s Bit rate : 14.5 kb/s Count of elements : 151 Stream size : 2.50 MiB (0%) Title : Songs & Signs Subtitles Language : English Default : No Forced : No Text #2 ID : 5 Format : PGS Muxing mode : zlib Codec ID : S_HDMV/PGS Codec ID/Info : Picture based subtitle format used on BDs/HD-DVDs Duration : 24 min 8 s Bit rate : 73.8 kb/s Count of elements : 884 Stream size : 12.7 MiB (1%) Title : Full English Subtitles Language : English Default : Yes Forced : No Menu #1 00:00:00.000 : en:Chapter 01 00:06:34.977 : en:Chapter 02 00:08:04.942 : en:Chapter 03 00:14:19.233 : en:Chapter 04 00:22:21.798 : en:Chapter 05 00:23:55.225 : en:Chapter 06

File list

  • Mob Psycho 100 II
    • OVA - Spirits and Such Company Trip - A Journey That Mends the Heart and Heals the Soul.mkv (818.3 MiB)
    • S02E01 - Ripped Apart - Someone Is Watching.mkv (1.3 GiB)
    • S02E02 - Urban Legends - Encountering Rumors.mkv (1.4 GiB)
    • S02E03 - One Danger After Another - Degeneration.mkv (1002.8 MiB)
    • S02E04 - Inside - Evil Spirit.mkv (1.2 GiB)
    • S02E05 - Discord - Choices.mkv (1.2 GiB)
    • S02E06 - Poor, Lonely, Whitey.mkv (1.1 GiB)
    • S02E07 - Cornered - True Identity.mkv (1.3 GiB)
    • S02E08 - Even Then - Continue Forward.mkv (1.3 GiB)
    • S02E09 - Show Me What You`ve Got - Band Together.mkv (1.3 GiB)
    • S02E10 - Collision - Power Type.mkv (1.3 GiB)
    • S02E11 - Guidance - Psychic Sensor.mkv (1.4 GiB)
    • S02E12 - The Battle for Social Rehabilitation - Friendship.mkv (1.4 GiB)
    • S02E13 - Boss Fight - The Final Light.mkv (1.3 GiB)