[neoHEVC] Skip Beat! [1080p x265 HEVC AAC] [Dual Audio]

Category:
Date:
2020-09-03 14:17 UTC
Submitter:
Seeders:
5
Information:
Leechers:
2
File size:
6.3 GiB
Completed:
738
Info hash:
0062f4e65b2f14ab418d151e072c52743ef717e7
![](https://i.imgur.com/2dVqnvx.png) *Join **[Discord](https://discord.gg/KYKYZUh)** for Current Projects, Encode-Requests and Seed-Request in case of no available seeds.* **Skip Beat!** *with `Dual Audio (Jpn/Eng)` and `Eng Subs` in `1080p HEVC`* Remux (with audio transcode) of [Mastermind] (x265 HEVC FLAC) to (x265 HEVC AAC) with added English audio tracks from [Anonymous]. *Side Note: I created an additional [Signs & Songs] subtitles track from the [Dialog] track to go with the added [English audio] track.* ![](https://i.imgur.com/4iegWLL.png) **[Trailer](https://www.youtube.com/watch?v=SONPPYIGTYk)** ![](https://i.imgur.com/3UxGuWB.png) ![](https://i.imgur.com/ZCtSawZ.png) **[MyAnimeList](https://myanimelist.net/anime/4722/Skip_Beat)** --- **Patch for Default Language / Subtitles Track** This comes with [English audio] and [Signs/Songs subtitles] as default tracks. I included an xDelta Patch for those who rather like [Japanese audio] with [Dialog subtitles] as default. > Simply put all the video files into the Patch folder and run the patch file depending on your OS (for Windows: run '*3.Apply Patch-Windows.bat*'). > Consult '*readme.txt*' if you need help. --- **Synopsis** Bright, diligent, and yet naïve 16-year-old Kyouko Mogami works hard to support the career and dreams of her childhood friend, crush, and rising pop icon, Shoutarou Fuwa. Toiling endlessly at burger joints and tea ceremonies, the innocent Kyouko remains unaware that day in day out, all her tireless efforts have been taken for granted, until, one day, she finds out that her beloved Shou sees her as nothing but a free servant. Shocked, heartbroken and enraged, she vows to take revenge on the rookie star by entering the ruthless world of entertainment herself. As she steps into this new life, Kyouko will face new challenges as well as people who will push her out of her comfort zone. Based on the best-selling shoujo manga by Yoshiki Nakamura, Skip Beat showcases the growth of a young woman who slowly unlearns how to work herself to the bone for the satisfaction of others and takes her future into her own hands instead. ![](https://i.imgur.com/BxoSj7z.png) --- **Screenshots** [![](https://i.imgur.com/ra42cxI.png)](https://i.imgur.com/Zok7TIw.jpg) [![](https://i.imgur.com/C4oxicH.png)](https://i.imgur.com/HLC104V.jpg) [![](https://i.imgur.com/I7lEbws.png)](https://i.imgur.com/HudsIcE.jpg) --- **Source** ?️ Video, Jpn Audio and Subs: [MasterMind] https://nyaa.si/view/1184731 ?️ Eng Audio: [Anonymous] https://nyaa.si/view/984652 ? *Subtitles Info: [Toriaezu] - Format `ASS`* --- **Media Info** ? [Full Mediainfo incl. Encoder Settings](https://pastebin.com/3gZCryHc) ``` General Unique ID : 41532172012492463727153566795243366955 (0x1F3ECE2CF3FF3A72A1BF14851422AA2B) Complete name : Skip Beat! - S01E01.mkv Format : Matroska Format version : Version 4 File size : 266 MiB Duration : 23 min 54 s Overall bit rate : 1 556 kb/s Movie name : Skip Beat! - S01E01 Encoded date : UTC 2020-09-03 09:56:48 Writing application : mkvmerge v47.0.0 ('Black Flag') 64-bit Writing library : libebml v1.3.10 + libmatroska v1.5.2 / Lavf58.47.100 Attachments : Express.ttf / MentorSansStd.otf Video ID : 1 Format : HEVC Format/Info : High Efficiency Video Coding Format profile : Main 10@L4@Main Codec ID : V_MPEGH/ISO/HEVC Duration : 23 min 54 s Bit rate : 1 151 kb/s Width : 1 920 pixels Height : 1 080 pixels Display aspect ratio : 16:9 Frame rate mode : Variable Frame rate : 23.976 FPS Color space : YUV Chroma subsampling : 4:2:0 Bit depth : 10 bits Bits/(Pixel*Frame) : 0.023 Stream size : 197 MiB (74%) Writing library : x265 3.0:[Windows][GCC 7.1.0][64 bit] 10bit Encoding settings : <Check Link Above> Default : Yes Forced : No Color range : Limited Color primaries : BT.709 Transfer characteristics : BT.709 Matrix coefficients : BT.709 Audio #1 ID : 2 Format : AAC LC Format/Info : Advanced Audio Codec Low Complexity Codec ID : A_AAC-2 Duration : 23 min 54 s Bit rate : 160 kb/s Channel(s) : 2 channels Channel layout : L R Sampling rate : 48.0 kHz Frame rate : 46.875 FPS (1024 SPF) Compression mode : Lossy Stream size : 27.4 MiB (10%) Title : Stereo - ENG (AAC) Language : English Default : Yes Forced : Yes Audio #2 ID : 3 Format : AAC LC Format/Info : Advanced Audio Codec Low Complexity Codec ID : A_AAC-2 Duration : 23 min 54 s Bit rate : 241 kb/s Channel(s) : 2 channels Channel layout : L R Sampling rate : 48.0 kHz Frame rate : 46.875 FPS (1024 SPF) Compression mode : Lossy Stream size : 41.2 MiB (15%) Title : Stereo - JPN (AAC) Writing library : Lavc58.93.100 aac Language : Japanese Default : No Forced : No Text #1 ID : 4 Format : ASS Codec ID : S_TEXT/ASS Codec ID/Info : Advanced Sub Station Alpha Duration : 23 min 8 s Bit rate : 26 b/s Count of elements : 59 Compression mode : Lossless Stream size : 4.55 KiB (0%) Title : Signs & Songs - ENG (ASS) Language : English Default : Yes Forced : Yes Text #2 ID : 5 Format : ASS Codec ID : S_TEXT/ASS Codec ID/Info : Advanced Sub Station Alpha Duration : 23 min 45 s Bit rate : 127 b/s Count of elements : 376 Compression mode : Lossless Stream size : 22.2 KiB (0%) Title : Dialog - ENG (ASS) Language : English Default : No Forced : No Menu 00:00:00.000 : :Intro 00:00:31.031 : :OP 00:02:00.954 : :Part A 00:12:23.701 : :Part B 00:22:19.588 : :ED ```

File list

  • [neoHEVC] Skip Beat! [1080p x265 HEVC AAC] [Dual Audio]
    • Language Swap Patch
      • vcdiff
        • Skip Beat! - S01E01.mkv.vcdiff (168.8 KiB)
        • Skip Beat! - S01E02.mkv.vcdiff (169.4 KiB)
        • Skip Beat! - S01E03.mkv.vcdiff (169.3 KiB)
        • Skip Beat! - S01E04.mkv.vcdiff (170.1 KiB)
        • Skip Beat! - S01E05.mkv.vcdiff (99.6 KiB)
        • Skip Beat! - S01E06.mkv.vcdiff (101.1 KiB)
        • Skip Beat! - S01E07.mkv.vcdiff (101.3 KiB)
        • Skip Beat! - S01E08.mkv.vcdiff (170.8 KiB)
        • Skip Beat! - S01E09.mkv.vcdiff (165.6 KiB)
        • Skip Beat! - S01E10.mkv.vcdiff (169.1 KiB)
        • Skip Beat! - S01E11.mkv.vcdiff (107.9 KiB)
        • Skip Beat! - S01E12.mkv.vcdiff (102.8 KiB)
        • Skip Beat! - S01E13.mkv.vcdiff (101.7 KiB)
        • Skip Beat! - S01E14.mkv.vcdiff (168.6 KiB)
        • Skip Beat! - S01E15.mkv.vcdiff (167.6 KiB)
        • Skip Beat! - S01E16.mkv.vcdiff (103.6 KiB)
        • Skip Beat! - S01E17.mkv.vcdiff (104.5 KiB)
        • Skip Beat! - S01E18.mkv.vcdiff (105.8 KiB)
        • Skip Beat! - S01E19.mkv.vcdiff (109.0 KiB)
        • Skip Beat! - S01E20.mkv.vcdiff (99.5 KiB)
        • Skip Beat! - S01E21.mkv.vcdiff (101.1 KiB)
        • Skip Beat! - S01E22.mkv.vcdiff (102.5 KiB)
        • Skip Beat! - S01E23.mkv.vcdiff (103.5 KiB)
        • Skip Beat! - S01E24.mkv.vcdiff (102.8 KiB)
        • Skip Beat! - S01E25.mkv.vcdiff (102.0 KiB)
      • 1.Readme.txt (1.1 KiB)
      • 2.Changelog.txt (0 Bytes)
      • 3.Apply Patch-Linux.sh (3.7 KiB)
      • 3.Apply Patch-Mac.command (3.8 KiB)
      • 3.Apply Patch-Windows.bat (4.2 KiB)
      • xdelta-3.1.0-x86_64.exe (609.8 KiB)
      • xdelta3 (838.8 KiB)
      • xdelta3_mac (144.7 KiB)
    • Skip Beat! - S01E01.mkv (266.0 MiB)
    • Skip Beat! - S01E02.mkv (272.5 MiB)
    • Skip Beat! - S01E03.mkv (255.4 MiB)
    • Skip Beat! - S01E04.mkv (277.3 MiB)
    • Skip Beat! - S01E05.mkv (248.2 MiB)
    • Skip Beat! - S01E06.mkv (273.4 MiB)
    • Skip Beat! - S01E07.mkv (250.7 MiB)
    • Skip Beat! - S01E08.mkv (277.6 MiB)
    • Skip Beat! - S01E09.mkv (225.5 MiB)
    • Skip Beat! - S01E10.mkv (252.7 MiB)
    • Skip Beat! - S01E11.mkv (259.3 MiB)
    • Skip Beat! - S01E12.mkv (301.7 MiB)
    • Skip Beat! - S01E13.mkv (269.3 MiB)
    • Skip Beat! - S01E14.mkv (274.3 MiB)
    • Skip Beat! - S01E15.mkv (255.5 MiB)
    • Skip Beat! - S01E16.mkv (236.1 MiB)
    • Skip Beat! - S01E17.mkv (301.1 MiB)
    • Skip Beat! - S01E18.mkv (283.4 MiB)
    • Skip Beat! - S01E19.mkv (279.9 MiB)
    • Skip Beat! - S01E20.mkv (211.7 MiB)
    • Skip Beat! - S01E21.mkv (307.5 MiB)
    • Skip Beat! - S01E22.mkv (208.8 MiB)
    • Skip Beat! - S01E23.mkv (248.0 MiB)
    • Skip Beat! - S01E24.mkv (238.7 MiB)
    • Skip Beat! - S01E25.mkv (220.8 MiB)
Do you have time to even watch any anime with all the encoding you do? Thanks again.

neoborn (uploader)

User
Hehe yeah I do watch a couple episodes every day. Im pretty slow though and my PTW is huuuuge :O
Thanks a ton! Nice file size and lots of solid work on the subs. Great upload!