Space Pirate Captain Harlock(2013) [BDRemux 1920x1080]

Category:
Date:
2020-09-03 13:01 UTC
Submitter:
Seeders:
2
Information:
No information.
Leechers:
2
File size:
19.1 GiB
Completed:
153
Info hash:
586a873b0efc443aea9802514bd1f1c0aac74206
File size : 19.1 GiB Duration : 1 h 55 min Overall bit rate : 23.8 Mb/s Encoded date : 2020-09-01 13:17:33 Cover : Yes Attachments : cover art.jpg Video ID : 1 Format : AVC Format/Info : Advanced Video Codec Format profile : High@L4.1 Format settings : CABAC / 3 Ref Frames Format settings, CABAC : Yes Format settings, Reference : 3 frames Format settings, GOP : M=1, N=12 Codec ID : V_MPEG4/ISO/AVC Duration : 1 h 55 min Bit rate mode : Variable Bit rate : 19.9 Mb/s Maximum bit rate : 28.0 Mb/s Width : 1 920 pixels Height : 1 080 pixels Display aspect ratio : 16:9 Frame rate mode : Constant Frame rate : 23.976 (24000/1001) FPS Color space : YUV Chroma subsampling : 4:2:0 Bit depth : 8 bits Scan type : Progressive Bits/(Pixel*Frame) : 0.401 Stream size : 16.0 GiB (84%) Default : Yes Forced : No Audio ID : 2 Format : DTS XLL Format/Info : Digital Theater Systems Commercial name : DTS-HD Master Audio Codec ID : A_DTS Duration : 1 h 55 min Bit rate mode : Variable Bit rate : 3 843 kb/s Channel(s) : 6 channels Channel layout : C L R Ls Rs LFE Sampling rate : 48.0 kHz Frame rate : 93.750 FPS (512 SPF) Bit depth : 24 bits Compression mode : Lossless Stream size : 3.09 GiB (16%) Language : Japanese Default : Yes Forced : No Text #1 ID : 3 Format : ASS Codec ID : S_TEXT/ASS Codec ID/Info : Advanced Sub Station Alpha Duration : 1 h 53 min Bit rate : 69 b/s Count of elements : 1116 Compression mode : Lossless Stream size : 58.3 KiB (0%) Language : English Default : Yes Forced : No Text #2 ID : 4 Format : ASS Codec ID : S_TEXT/ASS Codec ID/Info : Advanced Sub Station Alpha Duration : 1 h 53 min Bit rate : 71 b/s Count of elements : 1080 Compression mode : Lossless Stream size : 59.7 KiB (0%) Language : English Default : No Forced : No

File list

  • Space Pirate Captain Harlock(2013) [BDRemux 1920x1080].mkv (19.1 GiB)
Please seed. Thank you