[XC] Touhou - Bad Apple!! PV (WEB 540p VP9 12-bit WavPack v0)

Category:
Date:
2020-09-03 01:46 UTC
Submitter:
Seeders:
14
Information:
No information.
Leechers:
0
File size:
80.3 MiB
Completed:
289
Info hash:
683c9fce60d4665ab40bfaee123897b9cdbabe76
A cool autism release for the opening to the famous Touhou anime series. Been working on this on and off for about 2 weeks, early release with some missing bits and pieces to capitalize on the memes. DataHoarder had independently been working on his own release, I had no idea and I doubt he did either https://nyaa.si/view/1276567 Encoded from [the official YouTube upload](https://www.youtube.com/watch?v=i41KoE0iMYU) (higher quality master than niconico), downscaled to a more appropriate resolution, anti aliased to the best of my ability. Lossless audio cut & synced from the Lovelight album. Named chapters for each character's appearances. Fancy typesetting concept using vectors, see preview. Translation by a friend. Karaoke by [FTV](https://nyaa.si/view/96595). Special thanks to thebombzen. Peace to XC boys. Preview (click for a video): [![Preview](https://i.uwu.so/vm9eun.webp)](https://i.uwu.so/jodx54.webm) MediaInfo: ``` General Unique ID : 161986277531367723164347421606978922585 (0x79DD6C186DAD7F32C41BFE11A0362859) Complete name : [XC] Touhou - Bad Apple!! PV (WEB 540p VP9 12-bit WavPack v0).mkv Format : Matroska Format version : Version 4 File size : 80.3 MiB Duration : 3 min 52 s Overall bit rate mode : Variable Overall bit rate : 2 903 kb/s Movie name : Bad Apple!! PV Encoded date : UTC 2020-09-03 01:44:20 Writing application : mkvmerge v49.0.0 ('Sick Of Losing Soulmates') 64-bit Writing library : libebml v1.4.0 + libmatroska v1.6.2 / Lavf58.51.100 Attachments : AdobeKaitiStd-Regular.otf / FTLTLT.ttf IsTruncated : Yes Video ID : 1 Format : VP9 Codec ID : V_VP9 Duration : 3 min 52 s Bit rate : 1 097 kb/s Width : 720 pixels Height : 540 pixels Display aspect ratio : 4:3 Frame rate mode : Constant Frame rate : 29.970 (30000/1001) FPS Bits/(Pixel*Frame) : 0.094 Stream size : 30.3 MiB (38%) Writing library : Lavc58.101.100 libvpx-vp9 Default : Yes Forced : No Audio ID : 2 Format : WavPack Format profile : 4.16 Format settings : Lossless Codec ID : A_WAVPACK4 Duration : 3 min 52 s Bit rate mode : Variable Bit rate : 1 058 kb/s Channel(s) : 2 channels Sampling rate : 48.0 kHz Frame rate : 2.003 FPS (23964 SPF) Bit depth : 16 bits Stream size : 29.3 MiB (36%) Encoding settings : -h Language : Japanese Default : Yes Forced : No Text ID : 3 Format : ASS Codec ID : S_TEXT/ASS Codec ID/Info : Advanced Sub Station Alpha Duration : 3 min 0 s Bit rate : 191 kb/s Count of elements : 7551 Compression mode : Lossless Stream size : 4.11 MiB (5%) Language : English Default : Yes Forced : No Menu 00:00:00.007 : :Reimu Hakurei 00:00:14.755 : :Marisa Kirisame 00:00:27.401 : :Patchouli Knowledge 00:00:36.110 : :Remilia Scarlet 00:00:42.049 : :Sakuya Izayoi 00:00:49.990 : :Flandre Scarlet 00:00:57.031 : :Youmu Konpaku 00:01:03.537 : :Yuyuko Saigyouji 00:01:10.311 : :Komachi Onozuka 00:01:18.285 : :Eiki Shiki, Yamaxanadu 00:01:24.425 : :Fujiwara no Mokou 00:01:32.499 : :Keine Kamishirasawa 00:01:33.934 : :Ex-Keine Kamishirasawa 00:01:38.405 : :Eirin Yagokoro 00:01:45.145 : :Kaguya Houraisan 00:01:51.685 : :Prismriver Sisters 00:01:55.923 : :Lunasa Prismriver 00:01:57.157 : :Merlin Prismriver 00:01:58.025 : :Lyrica Prismriver 00:01:59.560 : :Chen 00:02:00.461 : :Ran Yakumo 00:02:01.328 : :Tewi Inaba 00:02:02.162 : :Reisen Udongein Inaba 00:02:05.065 : :Momiji Inubashiri 00:02:06.600 : :Sanae Kochiya 00:02:11.071 : :Hina Kagiyama 00:02:13.140 : :Kanako Yasaka 00:02:15.576 : :Moriya Suwako 00:02:20.180 : :Yukari Yakumo 00:02:27.221 : :Tenshi Hinanawi 00:02:32.426 : :Yukari Yakumo (again) 00:02:33.293 : :Tenshi Hinanawi (again) 00:02:34.228 : :Tenshi Hinanawi / Yukari Yakumo 00:02:35.295 : :Aya Shameimaru 00:02:40.801 : :Suika Ibuki 00:02:48.142 : :Alice Margatroid 00:02:54.448 : :Nitori Kawashiro 00:03:01.855 : :Yuuka Kazami 00:03:08.829 : :Elly 00:03:15.936 : :Reimu Hakurei (PC-98) 00:03:22.710 : :Marisa Kirisame (PC-98) 00:03:29.683 : :Ending 00:03:38.959 : :Credits ``` Full release should come out whenever I stop being lazy and submit a patch to ffmpeg to fix some stuff.

File list

  • [XC] Touhou - Bad Apple!! PV (WEB 540p VP9 12-bit WavPack v0).mkv (80.3 MiB)
"if you don't comment on the nyaa upload you're mean"
Just now I noticed this. I guess we went different ways, I was just testing some vectorization setup (now improved) and found this as the best target. Nice subs, I should have done some masking given I had access to all the vectors... .... maybe v2 incoming