[neoHEVC] Giant Killing [1080p / 720p x265 HEVC AAC]

Category:
Date:
2020-09-01 13:00 UTC
Submitter:
Seeders:
2
Information:
Leechers:
1
File size:
9.5 GiB
Completed:
337
Info hash:
a3b36a5dffe9daa88735ff97e824bdb5a5a89c0a
![](https://i.imgur.com/2dVqnvx.png) *Join **[Discord](https://discord.gg/KYKYZUh)** for Current Projects, Encode-Requests and Seed-Request in case of no available seeds.* **Giant Killing** *with `Jpn Dub` and `Eng Subs` in `1080p/720p HEVC`* Reencode of [Permidon/Zero-Raws] (x264 AVC AAC) to (x265 HEVC AAC) with added English subtitles from [FFFpeeps]. *Side Note: The source had mixed resolutions for various episodes. I left them at these: [Resolution: Episodes]: - 1920x1080: 1-8, 11, 13-15, 17, 19-24, 26 - 1440x810: 9 - 1280x720: 10, 12, 16, 18, 25* *Episode 1 to 5 had missing subtitles for the OP and ED. I copied/inserted them and made other minor styling changes on the subtitles.* ![](https://i.imgur.com/4iegWLL.png) **[Trailer](https://www.youtube.com/watch?v=VX_QGTdipB4)** ![](https://i.imgur.com/3UxGuWB.png) ![](https://i.imgur.com/ZCtSawZ.png) **[MyAnimeList](https://myanimelist.net/anime/7661/Giant_Killing)** --- **Synopsis** East Tokyo United (ETU) has been struggling in Japan's top soccer league for the past few years. It has taken everything they have just to avoid relegation. To make matters even worse, the team has lost five matches in a row, leading to abysmal team morale. Even the fans are beginning to abandon them, and rumors hint that the home ground municipality is going to withdraw their support. With countless coaches fired and poor financial choices in hiring players, it is a downward spiral for ETU. The board of directors, under pressure from general manager Kousei Gotou, takes a gamble and hires a new coach—the slightly eccentric Takeshi Tatsumi. Though considered a great soccer player when he was younger, Tatsumi abandoned ETU years ago. However, since then, he has proven himself successful as the manager of one of England's lower division amateur teams. Tatsumi's task won't be easy; ETU fans call him a traitor, and the team is pitted against others with larger budgets and better players. Yet even the underdog can take down a goliath, and Tatsumi claims he is an expert at giant killing. ![](https://i.imgur.com/4AlKuV8.png) --- **Comparison** (avc: source, hevc: encode) *Open links, toggle with mouseclick and check title.* [![](https://i.imgur.com/8LZOhkl.png)](https://slow.pics/c/V9Aavnqj) [![](https://i.imgur.com/6gpwwnq.png)](https://slow.pics/c/ZKjjqT1S) [![](https://i.imgur.com/AWQqNnH.png)](https://slow.pics/c/qjTwcZKv) --- **Source** ?️ Video and Audio: [Permidon/Zero-Raws] https://nyaa.si/view/1070983 ?️ Subs: [FFFpeeps] https://nyaa.si/view/269814 ? *Subtitles Info: - Format `ASS`* --- **Media Info** ``` General Unique ID : 329534137556793386839491977423609823116 (0xF7E9F760DE52094F5CE89B2752C27F8C) Complete name : Giant Killing - S01E01.mkv Format : Matroska Format version : Version 4 File size : 355 MiB Duration : 24 min 29 s Overall bit rate : 2 024 kb/s Movie name : Giant Killing - S01E01 Encoded date : UTC 2020-09-01 11:51:42 Writing application : mkvmerge v47.0.0 ('Black Flag') 64-bit Writing library : libebml v1.3.10 + libmatroska v1.5.2 / Lavf58.47.100 Attachments : cambria.ttc / cambriab.ttf / cambriai.ttf / cambriaz.ttf / DFLis6.ttc / icedeart.ttf / linkin.ttf / MECHAG.TTF / scar6.ttf / alien5.ttf / arial.ttf / Brady Bunch.ttf Video ID : 1 Format : HEVC Format/Info : High Efficiency Video Coding Format profile : Main 10@L4.1@High Codec ID : V_MPEGH/ISO/HEVC Duration : 24 min 29 s Bit rate : 1 827 kb/s Width : 1 920 pixels Height : 1 080 pixels Display aspect ratio : 16:9 Frame rate mode : Constant Frame rate : 23.976 (24000/1001) FPS Color space : YUV Chroma subsampling : 4:2:0 Bit depth : 10 bits Bits/(Pixel*Frame) : 0.037 Stream size : 320 MiB (90%) Writing library : x265 3.2.1+1-b5c86a64bbbe:[Windows][GCC 9.2.0][64 bit] 10bit Encoding settings : cpuid=1111039 / frame-threads=2 / numa-pools=4 / wpp / no-pmode / no-pme / no-psnr / no-ssim / log-level=2 / input-csp=1 / input-res=1920x1080 / interlace=0 / total-frames=0 / level-idc=41 / high-tier=1 / uhd-bd=0 / ref=5 / no-allow-non-conformance / no-repeat-headers / annexb / no-aud / no-hrd / info / hash=0 / no-temporal-layers / open-gop / min-keyint=24 / keyint=240 / gop-lookahead=0 / bframes=8 / b-adapt=2 / b-pyramid / bframe-bias=0 / rc-lookahead=25 / lookahead-slices=4 / scenecut=40 / radl=0 / no-splice / no-intra-refresh / ctu=64 / min-cu-size=8 / rect / no-amp / max-tu-size=32 / tu-inter-depth=1 / tu-intra-depth=1 / limit-tu=0 / rdoq-level=2 / dynamic-rd=0.00 / no-ssim-rd / signhide / no-tskip / nr-intra=0 / nr-inter=0 / no-constrained-intra / strong-intra-smoothing / max-merge=3 / limit-refs=3 / limit-modes / me=3 / subme=3 / merange=57 / temporal-mvp / no-hme / weightp / no-weightb / no-analyze-src-pics / deblock=0:0 / sao / no-sao-non-deblock / rd=4 / selective-sao=4 / no-early-skip / rskip / no-fast-intra / no-tskip-fast / no-cu-lossless / no-b-intra / no-splitrd-skip / rdpenalty=0 / psy-rd=0.00 / psy-rdoq=1.00 / no-rd-refine / no-lossless / cbqpoffs=0 / crqpoffs=0 / rc=crf / crf=23.0 / qcomp=0.60 / qpstep=4 / stats-write=0 / stats-read=0 / vbv-maxrate=50000 / vbv-bufsize=50000 / vbv-init=0.9 / crf-max=0.0 / crf-min=0.0 / ipratio=1.40 / pbratio=1.30 / aq-mode=3 / aq-strength=0.80 / cutree / zone-count=0 / no-strict-cbr / qg-size=32 / no-rc-grain / qpmax=69 / qpmin=0 / no-const-vbv / sar=1 / overscan=0 / videoformat=5 / range=0 / colorprim=1 / transfer=1 / colormatrix=1 / chromaloc=0 / display-window=0 / cll=0,0 / min-luma=0 / max-luma=1023 / log2-max-poc-lsb=8 / vui-timing-info / vui-hrd-info / slices=1 / no-opt-qp-pps / no-opt-ref-list-length-pps / no-multi-pass-opt-rps / scenecut-bias=0.05 / no-opt-cu-delta-qp / no-aq-motion / no-hdr / no-hdr-opt / no-dhdr10-opt / no-idr-recovery-sei / analysis-reuse-level=5 / scale-factor=0 / refine-intra=0 / refine-inter=0 / refine-mv=1 / refine-ctu-distortion=0 / no-limit-sao / ctu-info=0 / no-lowpass-dct / refine-analysis-type=0 / copy-pic=1 / max-ausize-factor=1.0 / no-dynamic-refine / no-single-sei / no-hevc-aq / no-svt / no-field / qp-adaptation-range=1.00 Default : Yes Forced : No Color range : Limited Color primaries : BT.709 Transfer characteristics : BT.709 Matrix coefficients : BT.709 Audio ID : 2 Format : AAC LC Format/Info : Advanced Audio Codec Low Complexity Codec ID : A_AAC-2 Duration : 24 min 29 s Bit rate : 141 kb/s Channel(s) : 2 channels Channel layout : L R Sampling rate : 48.0 kHz Frame rate : 46.875 FPS (1024 SPF) Compression mode : Lossy Stream size : 24.6 MiB (7%) Title : Stereo Default : Yes Forced : No Text ID : 3 Format : ASS Codec ID : S_TEXT/ASS Codec ID/Info : Advanced Sub Station Alpha Duration : 24 min 29 s Bit rate : 131 b/s Count of elements : 410 Compression mode : Lossless Stream size : 23.6 KiB (0%) Default : Yes Forced : No Menu 00:00:00.000 : :Prologue 00:01:55.282 : :Opening 00:03:26.206 : :Part A 00:14:22.195 : :Eyecatch 00:14:28.201 : :Part B 00:22:57.251 : :Ending 00:24:15.204 : :Preview ```

File list

  • [neoHEVC] Giant Killing [1080p-720p x265 HEVC AAC]
    • Giant Killing - S01E01.mkv (354.7 MiB)
    • Giant Killing - S01E02.mkv (402.1 MiB)
    • Giant Killing - S01E03.mkv (357.6 MiB)
    • Giant Killing - S01E04.mkv (373.0 MiB)
    • Giant Killing - S01E05.mkv (423.4 MiB)
    • Giant Killing - S01E06.mkv (344.9 MiB)
    • Giant Killing - S01E07.mkv (412.8 MiB)
    • Giant Killing - S01E08.mkv (382.3 MiB)
    • Giant Killing - S01E09.mkv (220.0 MiB)
    • Giant Killing - S01E10.mkv (225.8 MiB)
    • Giant Killing - S01E11.mkv (464.0 MiB)
    • Giant Killing - S01E12.mkv (214.2 MiB)
    • Giant Killing - S01E13.mkv (506.1 MiB)
    • Giant Killing - S01E14.mkv (360.2 MiB)
    • Giant Killing - S01E15.mkv (420.1 MiB)
    • Giant Killing - S01E16.mkv (230.7 MiB)
    • Giant Killing - S01E17.mkv (447.0 MiB)
    • Giant Killing - S01E18.mkv (220.0 MiB)
    • Giant Killing - S01E19.mkv (408.0 MiB)
    • Giant Killing - S01E20.mkv (439.7 MiB)
    • Giant Killing - S01E21.mkv (487.5 MiB)
    • Giant Killing - S01E22.mkv (410.7 MiB)
    • Giant Killing - S01E23.mkv (464.5 MiB)
    • Giant Killing - S01E24.mkv (428.8 MiB)
    • Giant Killing - S01E25.mkv (257.5 MiB)
    • Giant Killing - S01E26.mkv (489.0 MiB)
Those FFFpeeps subs styling choices had took me by surprise when i first watched it. Also Permidion isn't involved with Zero-Raws in any capacity.

neoborn (uploader)

User
No idea who did what to these and wether they are original Zero-Raws or not. In these cases I just mention what I manage to find out (Uploader name / file names / Source torrent description and so on)
full transparency haha.

neoborn (uploader)

User
Trying my best to give every little info possible yes. Thought since these low size encodes are used by many datacapped/slowspeed anime fans I'm trying to frontload everything so everybody knows exactly what this is and how it looks so they don't need to download just to check and be disappointed afterwards =)
yeah. everything is nicely detailed. good job.
will there ever be BD on this series?
never. i mean look at how they ended the show. it's painfully clear they had 0 confidence on the show giving them good financial returns. i would be more happy if the story is continued in the anime medium and given a satisfactory end if they can't adapt the full story. sometimes i wonder what if there could have been a crowd-funding for more episodes so that the story could be wrapped up satisfactorily. same with Hoshiai no Sora.