[Mysteria] Sword Art Online Alicization - War of Underworld [2019] (BD 1080p Hi10 FLAC)

Category:
Date:
2020-09-01 12:42 UTC
Submitter:
Seeders:
4
Information:
Leechers:
0
File size:
27.1 GiB
Completed:
236
Info hash:
0f24b6ff060929aca563bb4db0cb78f988ece7c9
![alt text](https://i0.wp.com/www.toonamisquad.com/wp-content/uploads/2019/09/image003.png?fit=447%2C566&ssl=1) **Synopsis:** Despite the defeat of Quinella—the pontifex of the Axiom Church—things have not seemed to calm down yet. Upon contacting the real world, Kazuto "Kirito" Kirigaya finds out that the Ocean Turtle—a mega-float controlled by Rath—was raided. Due to a sudden short-circuit caused by the raiders, Kirito's fluctlight is damaged, leaving him comatose. Feeling insecure about the people at the Axiom Church, Alice brings the unconscious Kirito back to their hometown—Rulid Village, disregarding her banishment due to an unabsolved crime. Now, Alice is living an ordinary and peaceful life close by the village, wishing for Kirito to wake up. However, tragedy strikes when Alice notices that the Dark Territory has already started to invade the Human Empire. Reassuming her previous alias, Alice Synthesis Thirty, she promises to defeat the Dark Territory in order to defend the world that Kirito and Eugeo worked so hard to protect. **~ Welcome to the releases that I never upload, since they're not h265. I will use both codecs from now on, but HEVC will still be prominently used. I am done with making re-encodes. They will never see the *light of day* again. There is no use in re-encoding something that's already been encoded. I will stop seeding once I reach a ratio of 5.** Description: Title: Sword Art Online: Alicization (War of Underworld) [Part 1] *Original Source: **[neko-raws](https://nyaa.si/view/1241836)** *Video Format: x264 AVC 10bit mkv *Audio Codec: **Japanese 2.0 (FLAC-16)** *Duration: 24 minutes *Subtitle Source: **MTBB** *Resolution/Quality: 1920x1080 or 1080p HD *Genre: Action, Game, Adventure, Romance, Fantasy *Age Rating: R - 17+ (violence & profanity) Upcoming Releases Next Month: Numerous v2's| | ------------- |:-------------:| -----:| |**ID:INVADED v2** |**[PSYCHO-PASS 3 v2](https://nyaa.si/view/1266143)** |**WWW.WORKING!! v2** **Screens:** ![alt text](https://i.imgur.com/b4hctGK.jpg) ![alt text](https://i.imgur.com/ZhsU182.jpg) ![alt text](https://i.imgur.com/HqY5TKo.jpg) **Media Info:** ``` General Unique ID : 17680152619060261903521049463445890084 (0xD4D12D3313948B4422882D611F5A424) Complete name : C:\Users\Mysteria\Downloads\[Mysteria] Sword Art Online Alicization - War of Underworld [2019] (BD 1080p Hi10 FLAC)\Season 3 (Part 1)\[Mysteria] Sword Art Online Alicization - War of Underworld - 02.mkv Format : Matroska Format version : Version 4 File size : 2.35 GiB Duration : 23 min 41 s Overall bit rate mode : Variable Overall bit rate : 14.2 Mb/s Movie name : [Mysteria] Sword Art Online Alicization - War of Underworld - 02 Encoded date : UTC 2020-09-01 01:42:38 Writing application : mkvmerge v49.0.0 ('Sick Of Losing Soulmates') 64-bit Writing library : libebml v1.4.0 + libmatroska v1.6.1 Attachments : BELLGOTHIC-BOLD.TTF / FUTURA.OTF / GandhiSans-Bold.otf / GandhiSans-BoldItalic.otf / OPTIMALTSTD-BOLD.OTF / QUADRAAT-BOLD.OTF Video ID : 1 Format : AVC Format/Info : Advanced Video Codec Format profile : High 10@L5 Format settings : CABAC / 16 Ref Frames Format settings, CABAC : Yes Format settings, Reference frames : 16 frames Codec ID : V_MPEG4/ISO/AVC Duration : 23 min 40 s Bit rate : 13.5 Mb/s Width : 1 920 pixels Height : 1 080 pixels Display aspect ratio : 16:9 Frame rate mode : Constant Frame rate : 23.976 (24000/1001) FPS Color space : YUV Chroma subsampling : 4:2:0 Bit depth : 10 bits Scan type : Progressive Bits/(Pixel*Frame) : 0.271 Stream size : 2.23 GiB (95%) Title : encode by neko-shi Writing library : x264 core 155 r2901M 7d0ff22 (DJATOM's mod) Encoding settings : cabac=1 / ref=16 / deblock=1:1:-1 / analyse=0x3:0x113 / me=umh / subme=10 / psy=1 / fade_compensate=0.00 / psy_rd=0.90:0.00 / mixed_ref=1 / me_range=32 / chroma_me=1 / trellis=2 / 8x8dct=1 / cqm=0 / deadzone=21,11 / fast_pskip=1 / chroma_qp_offset=-2 / threads=34 / lookahead_threads=8 / sliced_threads=0 / nr=0 / decimate=1 / interlaced=0 / bluray_compat=0 / constrained_intra=0 / bframes=16 / b_pyramid=2 / b_adapt=2 / b_bias=0 / direct=1 / weightb=1 / open_gop=0 / weightp=2 / keyint=240 / keyint_min=23 / scenecut=40 / intra_refresh=0 / rc=crf / mbtree=0 / crf=15.0000 / qcomp=0.70 / qpmin=0 / qpmax=81 / qpstep=4 / ip_ratio=1.40 / pb_ratio=1.30 / aq=3:1.00 Language : Japanese Default : Yes Forced : No Color range : Limited Color primaries : BT.709 Transfer characteristics : BT.709 Matrix coefficients : BT.709 Audio ID : 2 Format : FLAC Format/Info : Free Lossless Audio Codec Codec ID : A_FLAC Duration : 23 min 40 s Bit rate mode : Variable Bit rate : 699 kb/s Channel(s) : 2 channels Channel layout : L R Sampling rate : 48.0 kHz Frame rate : 10.417 FPS (4608 SPF) Bit depth : 16 bits Compression mode : Lossless Stream size : 118 MiB (5%) Title : Japanese 2.0 FLAC Writing library : libFLAC 1.3.3 (UTC 2019-08-04) Language : Japanese Default : Yes Forced : No Text ID : 3 Format : ASS Codec ID : S_TEXT/ASS Codec ID/Info : Advanced Sub Station Alpha Duration : 23 min 13 s Bit rate : 402 b/s Count of elements : 528 Compression mode : Lossless Stream size : 68.4 KiB (0%) Title : Full Subtitles [MTBB] Language : English Default : Yes Forced : No Menu 00:00:00.000 : :Prologue 00:00:39.039 : :Opening 00:02:09.004 : :Part A 00:12:41.052 : :Part B 00:21:48.057 : :Ending 00:23:18.063 : :Epilogue 00:23:35.039 : :Preview ```

File list

  • [Mysteria] Sword Art Online Alicization - War of Underworld [2019] (BD 1080p Hi10 FLAC)
    • Season 3 (War of Underworld Part 1)
      • Creditless
        • Sword Art Online Alicization - War of Underworld [NCED01].mkv (255.1 MiB)
        • Sword Art Online Alicization - War of Underworld [NCOP01].mkv (235.9 MiB)
        • Sword Art Online Alicization - War of Underworld [NCOP02].mkv (235.4 MiB)
        • Sword Art Online Alicization - War of Underworld [NCOP03].mkv (232.4 MiB)
      • [Mysteria] Sword Art Online Alicization - War of Underworld - 01 .mkv (1.7 GiB)
      • [Mysteria] Sword Art Online Alicization - War of Underworld - 02.mkv (2.3 GiB)
      • [Mysteria] Sword Art Online Alicization - War of Underworld - 03.mkv (2.0 GiB)
      • [Mysteria] Sword Art Online Alicization - War of Underworld - 04.mkv (2.4 GiB)
      • [Mysteria] Sword Art Online Alicization - War of Underworld - 05.mkv (1.6 GiB)
      • [Mysteria] Sword Art Online Alicization - War of Underworld - 06.mkv (2.6 GiB)
      • [Mysteria] Sword Art Online Alicization - War of Underworld - 07.mkv (2.3 GiB)
      • [Mysteria] Sword Art Online Alicization - War of Underworld - 08.mkv (2.6 GiB)
      • [Mysteria] Sword Art Online Alicization - War of Underworld - 09.mkv (2.2 GiB)
      • [Mysteria] Sword Art Online Alicization - War of Underworld - 10.mkv (2.0 GiB)
      • [Mysteria] Sword Art Online Alicization - War of Underworld - 11.mkv (1.9 GiB)
      • [Mysteria] Sword Art Online Alicization - War of Underworld - 12.mkv (2.5 GiB)
Didn't you release this before? Why do it again?

Ingenioussubs (uploader)

User
**@ghostosenpai** Yes indeed. I did release this before. It was re-encoded though. I don't do that anymore, so I decided to leave the video as is this time. I will no longer release re-encodes as it's pointless for me, and that's not what I'm aiming for.
> There is no use in re-encoding something that’s already been encoded. TELL THEM
Thanks. I'll replace it with this version.
Bits/(Pixel*Frame) 0.271 [Beast]
i think remuxing is best and less time
will you do dual audio for this too?

Ingenioussubs (uploader)

User
No, I won’t. Only reason I made Alicization dual audio, is because no other releases on nyaa have those subs.
Do you have any sources for eng audio (FLAC)?

Ingenioussubs (uploader)

User
Nope. Sure don't. No BD ones. Only thing that's up is [LostYears Dual Audio WEB release.](https://nyaa.si/view/1235339) Would make a dual audio FLAC release, if I could. I'll ask around and see. Surprised there's nothing decent in BD that's Dual Audio for this show. Instead of commenting, you can DM me. Don't read comments that much.

Ingenioussubs (uploader)

User
**@TheDevilsHyper** Just checked. The USBD isn't coming out for a while. That'll have to wait.
i find (BDMV) Sword Art Online Alicization War of Underworld part1 Full Blu-Ray vol.2-3 file M2ts. plz u can help upload ? i find and hope this so long very hope u can upload this Arigatou ~~~ >_<