[Tess] Manami & Nami Sprite (Sprite Between Two Worlds) [DVD 480p AVC Dual-Audio AC3]

Category:
Date:
2020-08-30 22:05 UTC
Submitter:
Seeders:
5
Information:
No information.
Leechers:
0
File size:
1.1 GiB
Completed:
314
Info hash:
61607d298d5b76a9fcc5eb252518de36bdb0b94c
Source: R1 DVD Subs: R1 Vobsub Uploader Notes: anidb lists this as hentai but both MAL and Anilist don't, so I decided to upload this here and not sukebei. I also don't believe this is hentai it by no means gives off that impression. It's pretty ecchi but definitely not hentai. I've been doing some experimenting with filtering beyond just a simple deinterlace and I'm pretty satisfied with how this encode turned out. Below are some comparison screenshots between the R1 DVD, this encode, and H72. I compared against H72's encode as this was the only other encode I could find. Source | Encode | H72 :-: | :-: | :-: [![08Qk51.th.png](https://i1.lensdump.com/i/08Qk51.th.png)](https://i1.lensdump.com/i/08Qk51.png) | [![08QWyD.th.png](https://i1.lensdump.com/i/08QWyD.th.png)](https://i1.lensdump.com/i/08QWyD.png) | [![08QgZQ.th.png](https://i1.lensdump.com/i/08QgZQ.th.png)](https://i1.lensdump.com/i/08QgZQ.png) [![08QCTc.th.png](https://i1.lensdump.com/i/08QCTc.th.png)](https://i1.lensdump.com/i/08QCTc.png) | [![08QjTq.th.png](https://i1.lensdump.com/i/08QjTq.th.png)](https://i1.lensdump.com/i/08QjTq.png) | [![08Qtue.th.png](https://i1.lensdump.com/i/08Qtue.th.png)](https://i1.lensdump.com/i/08Qtue.png) [![08QJOK.th.png](https://i1.lensdump.com/i/08QJOK.th.png)](https://i1.lensdump.com/i/08QJOK.png) | [![08Q0OA.th.png](https://i1.lensdump.com/i/08Q0OA.th.png)](https://i1.lensdump.com/i/08Q0OA.png) | [![08QRAk.th.png](https://i1.lensdump.com/i/08QRAk.th.png)](https://i1.lensdump.com/i/08QRAk.png) [![08QQcZ.th.png](https://i1.lensdump.com/i/08QQcZ.th.png)](https://i1.lensdump.com/i/08QQcZ.png) | [![08QIUM.th.png](https://i1.lensdump.com/i/08QIUM.th.png)](https://i1.lensdump.com/i/08QIUM.png) | [![08QTQx.th.png](https://i1.lensdump.com/i/08QTQx.th.png)](https://i1.lensdump.com/i/08QTQx.png) [![08Q9ZP.th.png](https://i1.lensdump.com/i/08Q9ZP.th.png)](https://i1.lensdump.com/i/08Q9ZP.png) | [![08Qrma.th.png](https://i1.lensdump.com/i/08Qrma.th.png)](https://i1.lensdump.com/i/08Qrma.png) | [![08QEnH.th.png](https://i1.lensdump.com/i/08QEnH.th.png)](https://i1.lensdump.com/i/08QEnH.png) Mediainfo: >General >Unique ID : 275340986003174197650245397270509847776 (0xCF24BEB768144085C3905ADC6C9F04E0) >Complete name : [Tess] Manami & Nami Sprite - 01 [DVD 480p AVC Dual-Audio AC3][6402AC86].mkv >Format : Matroska >Format version : Version 4 >File size : 546 MiB >Duration : 38 min 44 s >Overall bit rate : 1 971 kb/s >Encoded date : UTC 2020-08-30 02:40:05 >Writing application : mkvmerge v49.0.0 ('Sick Of Losing Soulmates') 64-bit >Writing library : libebml v1.4.0 + libmatroska v1.6.2 > >Video >ID : 1 >Format : AVC >Format/Info : Advanced Video Codec >Format profile : High 10@L5.1 >Format settings : CABAC / 12 Ref Frames >Format settings, CABAC : Yes >Format settings, Reference frames : 12 frames >Codec ID : V_MPEG4/ISO/AVC >Duration : 38 min 44 s >Bit rate : 1 583 kb/s >Width : 720 pixels >Height : 480 pixels >Display aspect ratio : 4:3 >Frame rate mode : Constant >Frame rate : 23.976 (24000/1001) FPS >Color space : YUV >Chroma subsampling : 4:2:0 >Bit depth : 10 bits >Scan type : Progressive >Bits/(Pixel*Frame) : 0.191 >Stream size : 439 MiB (80%) >Writing library : x264 core 160 r3011 cde9a93 >Encoding settings : cabac=1 / ref=12 / deblock=1:-2:-2 / analyse=0x3:0x133 / me=umh / subme=11 / psy=1 / psy_rd=1.00:0.00 / mixed_ref=1 / me_range=32 / chroma_me=1 / trellis=2 / 8x8dct=1 / cqm=0 / deadzone=21,11 / fast_pskip=0 / chroma_qp_offset=-2 / threads=15 / lookahead_threads=6 / sliced_threads=0 / slices=4 / nr=0 / decimate=1 / interlaced=0 / bluray_compat=0 / constrained_intra=0 / bframes=8 / b_pyramid=2 / b_adapt=2 / b_bias=0 / direct=3 / weightb=1 / open_gop=0 / weightp=2 / keyint=250 / keyint_min=23 / scenecut=40 / intra_refresh=0 / rc_lookahead=250 / rc=crf / mbtree=1 / crf=15.0 / qcomp=0.60 / qpmin=0 / qpmax=69 / qpstep=4 / vbv_maxrate=720000 / vbv_bufsize=720000 / crf_max=0.0 / nal_hrd=none / filler=0 / ip_ratio=1.40 / aq=3:0.80 >Default : Yes >Forced : No > >Audio #1 >ID : 2 >ID in the original source medium : 189 (0xBD)129 (0x81) >Format : AC-3 >Format/Info : Audio Coding 3 >Commercial name : Dolby Digital >Codec ID : A_AC3 >Duration : 38 min 44 s >Bit rate mode : Constant >Bit rate : 192 kb/s >Channel(s) : 2 channels >Channel layout : L R >Sampling rate : 48.0 kHz >Frame rate : 31.250 FPS (1536 SPF) >Compression mode : Lossy >Stream size : 53.2 MiB (10%) >Language : Japanese >Service kind : Complete Main >Default : Yes >Forced : No >Original source medium : DVD-Video > >Audio #2 >ID : 3 >ID in the original source medium : 189 (0xBD)128 (0x80) >Format : AC-3 >Format/Info : Audio Coding 3 >Commercial name : Dolby Digital >Codec ID : A_AC3 >Duration : 38 min 44 s >Bit rate mode : Constant >Bit rate : 192 kb/s >Channel(s) : 2 channels >Channel layout : L R >Sampling rate : 48.0 kHz >Frame rate : 31.250 FPS (1536 SPF) >Compression mode : Lossy >Stream size : 53.2 MiB (10%) >Language : English >Service kind : Complete Main >Default : No >Forced : No >Original source medium : DVD-Video > >Text >ID : 4 >ID in the original source medium : 189 (0xBD)32 (0x20) >Format : VobSub >Muxing mode : zlib >Codec ID : S_VOBSUB >Codec ID/Info : Picture based subtitle format used on DVDs >Duration : 35 min 34 s >Bit rate : 4 582 b/s >Count of elements : 463 >Stream size : 1.17 MiB (0%) >Language : English >Default : Yes >Forced : No >Original source medium : DVD-Video > >Menu >00:00:00.000 : en:Chapter 01 >00:17:58.343 : en:Chapter 02 >00:33:17.261 : en:Chapter 03 > >

File list

Why are the screens 1080p

Tesseract (uploader)

User
@Pinka I took the screenshots in MPV while it was in full screen. I debated using native resolution screens vs upscaled, but I felt upscaled screens would be more representative of what the files would look like during playback.
Hmm delicious!!!
I feel like native res is better since not everyone uses the same kernels for scaling. But thanks for the encode ^_^
So, what filter did you use to encode this? Like, what deinterlacing settings did you use?