[NSBC] Unsung Cinderella E07 [WEBDL] [1080p]

Category:
Date:
2020-08-28 09:38 UTC
Submitter:
Seeders:
9
Information:
TlNCQy50bwo=
Leechers:
0
File size:
886.9 MiB
Completed:
912
Info hash:
49f4ba864bdfb2901ef6b8c5eaf1b7bbc7babb22
> ### From Viu > ### In case there is no seeder, visit [here](https://nsbc.xyz/?p=25) > ### Subs at [Subscene](https://subscene.com/subtitles/unsung-cinderella-midori-the-hospital-pharmacist-unsung-cinderella-byoin-yakuzaishi-no-shohosen) ![](https://img.topddl.net/images/2020/07/16/wbhjfr_4o02_cxbg_002_wm.jpg "") ![](https://img.topddl.net/images/2020/08/28/Unsung-Cinderella-S01E07-1080p-WEB-DL-AAC-H.264-NSBC.mkv.jpg "") ``` General Unique ID : 207074212663909479863881261487861842203 (0x9BC90AED99849070D647A5D6CEB8C11B) Complete name : Unsung Cinderella S01E07 1080p WEB-DL AAC H.264-NSBC.mkv Format : Matroska Format version : Version 4 File size : 887 MiB Duration : 46 min 1 s Overall bit rate mode : Variable Overall bit rate : 2 694 kb/s Movie name : Unsung Cinderella S01E07 1080p WEB-DL AAC H.264-NSBC Encoded by : NoNe | NSBC Encoded date : UTC 2020-08-28 09:35:49 Writing application : mkvmerge v29.0.0 ('Like It Or Not') 64-bit Writing library : libebml v1.3.6 + libmatroska v1.4.9 Copyright : NSBC Comment : NoNe | NSBC DATE_RECORDED : 2020 NOTICE ME : SENPAI WEBSITE : NSBC.to Video ID : 1 Format : AVC Format/Info : Advanced Video Codec Format profile : High@L4.1 Format settings : CABAC / 4 Ref Frames Format settings, CABAC : Yes Format settings, Reference frames : 4 frames Codec ID : V_MPEG4/ISO/AVC Duration : 46 min 1 s Bit rate mode : Variable Bit rate : 2 595 kb/s Maximum bit rate : 4 500 kb/s Width : 1 920 pixels Height : 1 080 pixels Display aspect ratio : 16:9 Frame rate mode : Constant Frame rate : 29.970 (30000/1001) FPS Original frame rate : 29.970 (29970/1000) FPS Color space : YUV Chroma subsampling : 4:2:0 Bit depth : 8 bits Scan type : Progressive Bits/(Pixel*Frame) : 0.042 Stream size : 854 MiB (96%) Title : [NSBC] Writing library : VOLO1.4.1 Default : Yes Forced : No Audio ID : 2 Format : AAC LC Format/Info : Advanced Audio Codec Low Complexity Codec ID : A_AAC-2 Duration : 46 min 1 s Bit rate : 96.0 kb/s Channel(s) : 2 channels Channel layout : L R Sampling rate : 48.0 kHz Frame rate : 46.875 FPS (1024 SPF) Compression mode : Lossy Delay relative to video : -42 ms Stream size : 31.6 MiB (4%) Title : [NSBC] Language : Japanese Default : Yes Forced : No Text ID : 3 Format : UTF-8 Codec ID : S_TEXT/UTF8 Codec ID/Info : UTF-8 Plain Text Duration : 45 min 45 s Bit rate : 75 b/s Count of elements : 791 Stream size : 25.2 KiB (0%) Title : [NSBC] Language : English Default : No Forced : No ```

File list

  • Unsung Cinderella S01E07 1080p WEB-DL AAC H.264-NSBC.mkv (886.9 MiB)
Makasih.... Tokyo tower 2007 dong kak, onegai.....