[neoHEVC] Magical Angel Creamy Mami [BD 960p x265 HEVC AAC] Mahou no Tenshi Creamy Mami

Category:
Date:
2020-08-25 15:30 UTC
Submitter:
Seeders:
10
Information:
Leechers:
0
File size:
13.4 GiB
Completed:
1166
Info hash:
29f543ec2d1b5d99856d3aad303cb41ae71d5967
![](https://i.imgur.com/2dVqnvx.png) *Join **[Discord](https://discord.gg/KYKYZUh)** for Current Projects, Encode-Requests and Seed-Request in case of no available seeds.* **Magical Girl Creamy Mami / Mahou no Tenshi Creamy Mami** *with `Jpn Dub` and `Eng Subs` in `BD 960p HEVC`* Reencode of [Kagura] (x264 AVC FLAC) to (x265 HEVC AAC) with added subtitles from [Kagura]. ![](https://i.imgur.com/4iegWLL.png) **[Trailer](https://www.youtube.com/watch?v=8zIsD32pNDg)** ![](https://i.imgur.com/3UxGuWB.png) ![](https://i.imgur.com/ZCtSawZ.png) **[MyAnimeList](https://myanimelist.net/anime/2044/Mahou_no_Tenshi_Creamy_Mami)** --- **Synopsis** Creamy Mami is about a young girl, Yuu, who after seeing a spaceship is given the power to use magic for one year. She is also given 2 cats, Poji and Nega, to watch over and guide her. Using her magic powers to transform into the idol Creamy Mami, Yuu must work hard at acting, singing, helping her parents at their crepe shop, fighting aliens and bad guys, going to school, plus try to get the affections of her childhood friend Toshio. ![](https://i.imgur.com/jOrqjs2.png) --- **Comparison** (avc: source, hevc: encode) *Open links, toggle with mouseclick and check title.* [![](https://i.imgur.com/VuCIJmN.png)](https://slow.pics/c/GAqgJYwd) [![](https://i.imgur.com/SkG9IZV.png)](https://slow.pics/c/jncXcWW2) [![](https://i.imgur.com/BkvbMAt.png)](https://slow.pics/c/M1T8PlCe) --- **Source** ?️ Video and Audio: [Kagura] https://nyaa.si/view/587605 ?️ Subs: [Kagura] https://nyaa.si/view/1134453 ? *Subtitles Info: - Format `ASS`* --- **Media Info** ``` General Unique ID : 223934491689105808759570416085834017030 (0xA87836DD2F696D89DC45E4AC8DCA2906) Complete name : Magical Angel Creamy Mami - S01E01.mkv Format : Matroska Format version : Version 4 File size : 283 MiB Duration : 23 min 35 s Overall bit rate : 1 680 kb/s Encoded date : UTC 2020-08-16 13:03:55 Writing application : mkvmerge v47.0.0 ('Black Flag') 64-bit Writing library : libebml v1.3.10 + libmatroska v1.5.2 / Lavf58.29.100 Video ID : 1 Format : HEVC Format/Info : High Efficiency Video Coding Format profile : Main 10@L4@High Codec ID : V_MPEGH/ISO/HEVC Duration : 23 min 35 s Bit rate : 1 595 kb/s Width : 1 316 pixels Height : 960 pixels Display aspect ratio : 1.371 Frame rate mode : Constant Frame rate : 23.976 (24000/1001) FPS Color space : YUV Chroma subsampling : 4:2:0 Bit depth : 10 bits Bits/(Pixel*Frame) : 0.053 Stream size : 269 MiB (95%) Writing library : x265 3.2.1+1-b5c86a64bbbe:[Windows][GCC 9.2.0][64 bit] 10bit Encoding settings : cpuid=1111039 / frame-threads=2 / numa-pools=4 / wpp / no-pmode / no-pme / no-psnr / no-ssim / log-level=2 / input-csp=1 / input-res=1316x960 / interlace=0 / total-frames=0 / level-idc=40 / high-tier=1 / uhd-bd=0 / ref=6 / no-allow-non-conformance / no-repeat-headers / annexb / no-aud / no-hrd / info / hash=0 / no-temporal-layers / open-gop / min-keyint=24 / keyint=240 / gop-lookahead=0 / bframes=8 / b-adapt=2 / b-pyramid / bframe-bias=0 / rc-lookahead=25 / lookahead-slices=4 / scenecut=40 / radl=0 / no-splice / no-intra-refresh / ctu=64 / min-cu-size=8 / rect / no-amp / max-tu-size=32 / tu-inter-depth=1 / tu-intra-depth=1 / limit-tu=0 / rdoq-level=2 / dynamic-rd=0.00 / no-ssim-rd / signhide / no-tskip / nr-intra=0 / nr-inter=0 / no-constrained-intra / strong-intra-smoothing / max-merge=3 / limit-refs=3 / limit-modes / me=3 / subme=3 / merange=57 / temporal-mvp / no-hme / weightp / no-weightb / no-analyze-src-pics / deblock=0:0 / sao / no-sao-non-deblock / rd=4 / selective-sao=4 / no-early-skip / rskip / no-fast-intra / no-tskip-fast / no-cu-lossless / no-b-intra / no-splitrd-skip / rdpenalty=0 / psy-rd=0.00 / psy-rdoq=1.00 / no-rd-refine / no-lossless / cbqpoffs=0 / crqpoffs=0 / rc=crf / crf=22.0 / qcomp=0.60 / qpstep=4 / stats-write=0 / stats-read=0 / vbv-maxrate=30000 / vbv-bufsize=30000 / vbv-init=0.9 / crf-max=0.0 / crf-min=0.0 / ipratio=1.40 / pbratio=1.30 / aq-mode=3 / aq-strength=0.80 / cutree / zone-count=0 / no-strict-cbr / qg-size=32 / no-rc-grain / qpmax=69 / qpmin=0 / no-const-vbv / sar=1 / overscan=0 / videoformat=5 / range=0 / colorprim=1 / transfer=1 / colormatrix=1 / chromaloc=0 / display-window=0 / cll=0,0 / min-luma=0 / max-luma=1023 / log2-max-poc-lsb=8 / vui-timing-info / vui-hrd-info / slices=1 / no-opt-qp-pps / no-opt-ref-list-length-pps / no-multi-pass-opt-rps / scenecut-bias=0.05 / no-opt-cu-delta-qp / no-aq-motion / no-hdr / no-hdr-opt / no-dhdr10-opt / no-idr-recovery-sei / analysis-reuse-level=5 / scale-factor=0 / refine-intra=0 / refine-inter=0 / refine-mv=1 / refine-ctu-distortion=0 / no-limit-sao / ctu-info=0 / no-lowpass-dct / refine-analysis-type=0 / copy-pic=1 / max-ausize-factor=1.0 / no-dynamic-refine / no-single-sei / no-hevc-aq / no-svt / no-field / qp-adaptation-range=1.00 Default : Yes Forced : No Color range : Limited Color primaries : BT.709 Transfer characteristics : BT.709 Matrix coefficients : BT.709 Audio ID : 2 Format : AAC LC Format/Info : Advanced Audio Codec Low Complexity Codec ID : A_AAC-2 Duration : 23 min 35 s Bit rate : 82.9 kb/s Channel(s) : 2 channels Channel layout : L R Sampling rate : 48.0 kHz Frame rate : 46.875 FPS (1024 SPF) Compression mode : Lossy Delay relative to video : -43 ms Stream size : 14.0 MiB (5%) Title : Stereo Language : Japanese Default : Yes Forced : No Text ID : 3 Format : ASS Codec ID : S_TEXT/ASS Codec ID/Info : Advanced Sub Station Alpha Duration : 23 min 24 s Bit rate : 75 b/s Count of elements : 289 Compression mode : Lossless Stream size : 13.0 KiB (0%) Default : Yes Forced : No ```

File list

  • [neoHEVC] Magical Angel Creamy Mami - Mahou no Tenshi Creamy Mami [BD 960p x265 HEVC AAC]
    • Magical Angel Creamy Mami - S01E01.mkv (283.5 MiB)
    • Magical Angel Creamy Mami - S01E02.mkv (278.8 MiB)
    • Magical Angel Creamy Mami - S01E03.mkv (273.0 MiB)
    • Magical Angel Creamy Mami - S01E04.mkv (282.8 MiB)
    • Magical Angel Creamy Mami - S01E05.mkv (273.4 MiB)
    • Magical Angel Creamy Mami - S01E06.mkv (246.0 MiB)
    • Magical Angel Creamy Mami - S01E07.mkv (290.3 MiB)
    • Magical Angel Creamy Mami - S01E08.mkv (264.7 MiB)
    • Magical Angel Creamy Mami - S01E09.mkv (215.3 MiB)
    • Magical Angel Creamy Mami - S01E10.mkv (287.8 MiB)
    • Magical Angel Creamy Mami - S01E11.mkv (307.0 MiB)
    • Magical Angel Creamy Mami - S01E12.mkv (230.5 MiB)
    • Magical Angel Creamy Mami - S01E13.mkv (289.8 MiB)
    • Magical Angel Creamy Mami - S01E14.mkv (248.7 MiB)
    • Magical Angel Creamy Mami - S01E15.mkv (244.5 MiB)
    • Magical Angel Creamy Mami - S01E16.mkv (274.5 MiB)
    • Magical Angel Creamy Mami - S01E17.mkv (266.8 MiB)
    • Magical Angel Creamy Mami - S01E18.mkv (228.4 MiB)
    • Magical Angel Creamy Mami - S01E19.mkv (278.3 MiB)
    • Magical Angel Creamy Mami - S01E20.mkv (286.8 MiB)
    • Magical Angel Creamy Mami - S01E21.mkv (239.2 MiB)
    • Magical Angel Creamy Mami - S01E22.mkv (241.5 MiB)
    • Magical Angel Creamy Mami - S01E23.mkv (243.8 MiB)
    • Magical Angel Creamy Mami - S01E24.mkv (223.8 MiB)
    • Magical Angel Creamy Mami - S01E25.mkv (238.7 MiB)
    • Magical Angel Creamy Mami - S01E26.mkv (260.2 MiB)
    • Magical Angel Creamy Mami - S01E27.mkv (259.7 MiB)
    • Magical Angel Creamy Mami - S01E28.mkv (238.4 MiB)
    • Magical Angel Creamy Mami - S01E29.mkv (276.4 MiB)
    • Magical Angel Creamy Mami - S01E30.mkv (246.5 MiB)
    • Magical Angel Creamy Mami - S01E31.mkv (264.2 MiB)
    • Magical Angel Creamy Mami - S01E32.mkv (250.2 MiB)
    • Magical Angel Creamy Mami - S01E33.mkv (266.5 MiB)
    • Magical Angel Creamy Mami - S01E34.mkv (268.5 MiB)
    • Magical Angel Creamy Mami - S01E35.mkv (234.9 MiB)
    • Magical Angel Creamy Mami - S01E36.mkv (248.5 MiB)
    • Magical Angel Creamy Mami - S01E37.mkv (272.8 MiB)
    • Magical Angel Creamy Mami - S01E38.mkv (274.9 MiB)
    • Magical Angel Creamy Mami - S01E39.mkv (263.4 MiB)
    • Magical Angel Creamy Mami - S01E40.mkv (260.3 MiB)
    • Magical Angel Creamy Mami - S01E41.mkv (252.8 MiB)
    • Magical Angel Creamy Mami - S01E42.mkv (262.6 MiB)
    • Magical Angel Creamy Mami - S01E43.mkv (259.3 MiB)
    • Magical Angel Creamy Mami - S01E44.mkv (287.1 MiB)
    • Magical Angel Creamy Mami - S01E45.mkv (249.0 MiB)
    • Magical Angel Creamy Mami - S01E46.mkv (255.2 MiB)
    • Magical Angel Creamy Mami - S01E47.mkv (257.6 MiB)
    • Magical Angel Creamy Mami - S01E48.mkv (251.1 MiB)
    • Magical Angel Creamy Mami - S01E49.mkv (252.5 MiB)
    • Magical Angel Creamy Mami - S01E50.mkv (310.1 MiB)
    • Magical Angel Creamy Mami - S01E51.mkv (306.4 MiB)
    • Magical Angel Creamy Mami - S01E52.mkv (363.3 MiB)
Hey! I uploaded that subs XD I should really get back to uploading stuff! Thanks for the alternative smaller size!

neoborn (uploader)

User
![](https://i.imgur.com/7ZavSam.png) Yes I saw. Thanks **SomaHeir** =)
There's no seeders for this sadly. Can this be seeded once again?