Kai Doh Maru (Kaidoumaru) (Kaidomaru) (怪童丸) [DVD 576p] [Dual Audio]

Category:
Date:
2020-08-25 09:04 UTC
Submitter:
Seeders:
5
Information:
Leechers:
1
File size:
2.3 GiB
Completed:
159
Info hash:
f52ad276d0ea751e4cb3e1f1d0e7294f89e45fb0
Format : Matroska Format version : Version 2 File size : 2.33 GiB Duration : 46 min 45 s Overall bit rate mode : Variable Overall bit rate : 7 139 kb/s Movie name : Kaidohmaru - Madman Encoded date : UTC 2015-10-07 22:47:23 Writing application : MakeMKV v1.9.5 win(x64-release) Writing library : libmakemkv v1.9.5 (1.3.0/1.4.1) win(x64-release) Video ID : 1 Format : MPEG Video Format version : Version 2 Format profile : Main@Main Format settings : CustomMatrix / BVOP Format settings, BVOP : Yes Format settings, Matrix : Custom Format settings, GOP : M=3, N=12 Format settings, picture struc : Frame Codec ID : V_MPEG2 Codec ID/Info : MPEG 1 or 2 Video Duration : 46 min 45 s Bit rate mode : Variable Bit rate : 6 101 kb/s Maximum bit rate : 8 500 kb/s Width : 720 pixels Height : 576 pixels Display aspect ratio : 4:3 Frame rate mode : Constant Frame rate : 25.000 FPS Standard : PAL Color space : YUV Chroma subsampling : 4:2:0 Bit depth : 8 bits Scan type : Interlaced Scan order : Top Field First Compression mode : Lossy Bits/(Pixel*Frame) : 0.588 Time code of first frame : 00:59:59:01 Time code source : Group of pictures header GOP, Open/Closed : Closed Stream size : 1.99 GiB (85%) Language : English Default : No Forced : No Duration_Source : General_Duration Audio #1 ID : 2 Format : AC-3 Format/Info : Audio Coding 3 Commercial name : Dolby Digital Codec ID : A_AC3 Duration : 46 min 45 s Bit rate mode : Constant Bit rate : 448 kb/s Channel(s) : 6 channels Channel layout : L R C LFE Ls Rs Sampling rate : 48.0 kHz Frame rate : 31.250 FPS (1536 SPF) Compression mode : Lossy Stream size : 150 MiB (6%) Title : Surround 5.1 Language : English Service kind : Complete Main Default : Yes Forced : No Duration_Source : General_Duration Audio #2 ID : 3 Format : AC-3 Format/Info : Audio Coding 3 Commercial name : Dolby Digital Codec ID : A_AC3 Duration : 46 min 45 s Bit rate mode : Constant Bit rate : 448 kb/s Channel(s) : 6 channels Channel layout : L R C LFE Ls Rs Sampling rate : 48.0 kHz Frame rate : 31.250 FPS (1536 SPF) Compression mode : Lossy Stream size : 150 MiB (6%) Title : Surround 5.1 Language : Japanese Service kind : Complete Main Default : No Forced : No Duration_Source : General_Duration Text ID : 4 Format : VobSub Codec ID : S_VOBSUB Codec ID/Info : Picture based subtitle format used on DVDs Language : English Default : Yes Forced : No

File list

  • Kai Doh Maru.mkv (2.3 GiB)
Thanks for sharing
this looks interesting thanks