[neoHEVC] Kabukibu! [Season 1 + Special] [BD 1080p x265 HEVC AAC]

Category:
Date:
2020-08-24 15:07 UTC
Submitter:
Seeders:
2
Information:
Leechers:
2
File size:
2.4 GiB
Completed:
258
Info hash:
2e1799f278979c3717b358c751454111dd07f66d
![](https://i.imgur.com/2dVqnvx.png) *Join **[Discord](https://discord.gg/KYKYZUh)** for Current Projects, Encode-Requests and Seed-Request in case of no available seeds.* **Kabukibu!** Including *Kabukibu!: Oogiri Chiyocolate-gassen [Special]* *with `Jpn Dub` and `Eng Subs` in `BD 1080p HEVC`* Encode of [TTGA] (x264 AVC DTS XLL) to (x265 HEVC AAC). ![](https://i.imgur.com/4iegWLL.png) **[Trailer](https://www.youtube.com/watch?v=PDSMS8rqmNs)** ![](https://i.imgur.com/3UxGuWB.png) ![](https://i.imgur.com/ZCtSawZ.png) **[MyAnimeList: Kabukibu!](https://myanimelist.net/anime/33840/Kabuki-bu)** ![](https://i.imgur.com/3UxGuWB.png) ![](https://i.imgur.com/ZCtSawZ.png) **[MyAnimeList: Kabukibu!: Oogiri Chiyocolate-gassen](https://myanimelist.net/anime/35416/Kabuki-bu__Oogiri_Chiyocolate-gassen)** --- **Synopsis** Kurogu had a love of kabuki theater instilled in him from a very young age thanks to his grandfather. Now, as a high school student, he desires to create his own kabuki club in order to bring an appreciation of kabuki to a wider audience. He'll find, though, that with the weight of hundreds of years of strict tradition, it's not so easy to get high schoolers interested. A rough start is not enough to deter Kurogu, and he'll work hard to inspire in others the same burning passion he feels, until the day he can put on his own performance! ![](https://i.imgur.com/iP2ZGdW.png) --- **Comparison** (avc: source, hevc: encode) *Open links, toggle with mouseclick and check title.* [![](https://i.imgur.com/OLZMUd2.png)](https://slow.pics/c/U3H6R27t) [![](https://i.imgur.com/Aio0doW.png)](https://slow.pics/c/2b6N0pqV) [![](https://i.imgur.com/3giFe2J.png)](https://slow.pics/c/df8GhLKH) --- **Source** ?️ Video, Audio and Subs: [TTGA] https://nyaa.si/view/1272582 ? *Subtitles Info: - Format `PGS`* --- **Media Info** ``` General Unique ID : 297005285499628998987058023713016974681 (0xDF712325FE9DFBCE7BD1D87D21390D59) Complete name : Kabukibu! - S01E01.mkv Format : Matroska Format version : Version 4 File size : 203 MiB Duration : 25 min 12 s Overall bit rate : 1 123 kb/s Movie name : Kabukibu! - S01E01 Encoded date : UTC 2020-08-19 17:26:24 Writing application : mkvmerge v47.0.0 ('Black Flag') 64-bit Writing library : libebml v1.3.10 + libmatroska v1.5.2 / Lavf58.29.100 Video ID : 1 Format : HEVC Format/Info : High Efficiency Video Coding Format profile : Main 10@L4.1@High Codec ID : V_MPEGH/ISO/HEVC Duration : 25 min 12 s Bit rate : 918 kb/s Width : 1 920 pixels Height : 1 080 pixels Display aspect ratio : 16:9 Frame rate mode : Constant Frame rate : 23.976 (24000/1001) FPS Color space : YUV Chroma subsampling : 4:2:0 Bit depth : 10 bits Bits/(Pixel*Frame) : 0.018 Stream size : 166 MiB (82%) Writing library : x265 3.2.1+1-b5c86a64bbbe:[Windows][GCC 9.2.0][64 bit] 10bit Encoding settings : cpuid=1111039 / frame-threads=2 / numa-pools=4 / wpp / no-pmode / no-pme / no-psnr / no-ssim / log-level=2 / input-csp=1 / input-res=1920x1080 / interlace=0 / total-frames=0 / level-idc=41 / high-tier=1 / uhd-bd=0 / ref=5 / no-allow-non-conformance / no-repeat-headers / annexb / no-aud / no-hrd / info / hash=0 / no-temporal-layers / open-gop / min-keyint=24 / keyint=240 / gop-lookahead=0 / bframes=8 / b-adapt=2 / b-pyramid / bframe-bias=0 / rc-lookahead=25 / lookahead-slices=4 / scenecut=40 / radl=0 / no-splice / no-intra-refresh / ctu=64 / min-cu-size=8 / rect / no-amp / max-tu-size=32 / tu-inter-depth=1 / tu-intra-depth=1 / limit-tu=0 / rdoq-level=2 / dynamic-rd=0.00 / no-ssim-rd / signhide / no-tskip / nr-intra=0 / nr-inter=0 / no-constrained-intra / strong-intra-smoothing / max-merge=3 / limit-refs=3 / limit-modes / me=3 / subme=3 / merange=57 / temporal-mvp / no-hme / weightp / no-weightb / no-analyze-src-pics / deblock=0:0 / sao / no-sao-non-deblock / rd=4 / selective-sao=4 / no-early-skip / rskip / no-fast-intra / no-tskip-fast / no-cu-lossless / no-b-intra / no-splitrd-skip / rdpenalty=0 / psy-rd=0.00 / psy-rdoq=1.00 / no-rd-refine / no-lossless / cbqpoffs=0 / crqpoffs=0 / rc=crf / crf=22.0 / qcomp=0.60 / qpstep=4 / stats-write=0 / stats-read=0 / vbv-maxrate=50000 / vbv-bufsize=50000 / vbv-init=0.9 / crf-max=0.0 / crf-min=0.0 / ipratio=1.40 / pbratio=1.30 / aq-mode=3 / aq-strength=0.80 / cutree / zone-count=0 / no-strict-cbr / qg-size=32 / no-rc-grain / qpmax=69 / qpmin=0 / no-const-vbv / sar=1 / overscan=0 / videoformat=5 / range=0 / colorprim=1 / transfer=1 / colormatrix=1 / chromaloc=0 / display-window=0 / cll=0,0 / min-luma=0 / max-luma=1023 / log2-max-poc-lsb=8 / vui-timing-info / vui-hrd-info / slices=1 / no-opt-qp-pps / no-opt-ref-list-length-pps / no-multi-pass-opt-rps / scenecut-bias=0.05 / no-opt-cu-delta-qp / no-aq-motion / no-hdr / no-hdr-opt / no-dhdr10-opt / no-idr-recovery-sei / analysis-reuse-level=5 / scale-factor=0 / refine-intra=0 / refine-inter=0 / refine-mv=1 / refine-ctu-distortion=0 / no-limit-sao / ctu-info=0 / no-lowpass-dct / refine-analysis-type=0 / copy-pic=1 / max-ausize-factor=1.0 / no-dynamic-refine / no-single-sei / no-hevc-aq / no-svt / no-field / qp-adaptation-range=1.00 Default : Yes Forced : No Color range : Limited Color primaries : BT.709 Transfer characteristics : BT.709 Matrix coefficients : BT.709 Audio ID : 2 Format : AAC LC Format/Info : Advanced Audio Codec Low Complexity Codec ID : A_AAC-2 Duration : 24 min 13 s Bit rate : 192 kb/s Channel(s) : 2 channels Channel layout : L R Sampling rate : 48.0 kHz Frame rate : 46.875 FPS (1024 SPF) Compression mode : Lossy Delay relative to video : -43 ms Stream size : 33.6 MiB (17%) Title : Stereo - JPN (AAC) Language : Japanese Default : Yes Forced : No Text ID : 3 Format : PGS Muxing mode : zlib Codec ID : S_HDMV/PGS Codec ID/Info : Picture based subtitle format used on BDs/HD-DVDs Duration : 23 min 55 s Bit rate : 68.1 kb/s Count of elements : 791 Stream size : 11.7 MiB (6%) Title : Dialog - ENG (PGS) Language : English Default : No Forced : No Menu 00:00:00.000 : :Chapter 1 00:05:09.059 : :Chapter 2 00:06:38.982 : :Chapter 3 00:15:00.942 : :Chapter 4 00:22:11.038 : :Chapter 5 00:23:41.003 : :Chapter 6 00:24:12.451 : :Chapter 7 ```

File list

  • [neoHEVC] Kabukibu! [BD 1080p x265 HEVC AAC]
    • Kabukibu! - S01E01.mkv (202.5 MiB)
    • Kabukibu! - S01E02.mkv (166.4 MiB)
    • Kabukibu! - S01E03.mkv (190.2 MiB)
    • Kabukibu! - S01E04.mkv (202.9 MiB)
    • Kabukibu! - S01E05.mkv (232.8 MiB)
    • Kabukibu! - S01E06.mkv (192.1 MiB)
    • Kabukibu! - S01E07.mkv (169.7 MiB)
    • Kabukibu! - S01E08.mkv (234.0 MiB)
    • Kabukibu! - S01E09.mkv (161.9 MiB)
    • Kabukibu! - S01E10.mkv (168.4 MiB)
    • Kabukibu! - S01E11.mkv (185.7 MiB)
    • Kabukibu! - S01E12.mkv (151.9 MiB)
    • Kabukibu! - S01E13 (OVA - Oogiri Chiyocolate-gassen).mkv (173.7 MiB)
So that's where your pfp comes from

neoborn (uploader)

User
![](https://i.imgur.com/oFuo6oX.png) What do you mean by pfp?

neoborn (uploader)

User
Oh my profile picture? No I'm not in this anime. I like to mess around in photoshop and thought it would be funny to make me one of the stars in this picture haha. I sneaked into one of the pictures of another of my recent uploads too. Can you find it **Simplistic**? :P
IIRC neoborn's profile picture is from Railgun S
It's not a remake if your source was a remux.
> No I’m not in this anime. I like to mess around in photoshop and thought it would be funny to make me one of the stars in this picture haha. LMAO
@neoborn That's funny because when I first saw it I was like "did she add herself into this" but then I figured it probably actually came from the show. also pretty good job on AICO there @Glordit damn you're right that's probably [her](https://anilist.co/character/20626/Ruiko-Saten) and I like the index series too now I feel retarded ?
That was fast. Thanks.