[NSBC] Hanzawa Naoki 2020 Season 2 E06 [HDTV] [1080i]

Category:
Date:
2020-08-23 14:35 UTC
Submitter:
Seeders:
18
Information:
TlNCQy50bwo=
Leechers:
2
File size:
4.5 GiB
Completed:
4375
Info hash:
60638bcea48815108f647a5bbbf16a59333af4af
> ### In case there is no seeder, visit [here](https://nsbc.xyz/?p=53) ![](https://img.topddl.net/images/2020/07/19/poster.jpg "'") ![](https://img.topddl.net/images/2020/08/23/Hanzawa-Naoki-2020-S02E06-1080i-HDTV-AAC-MPEG2-NSBC.mkv.jpg "'") ``` General Unique ID : 298820913894424036175852605942854342529 (0xE0CED08A23BD367D09D4E89449145781) Complete name : Hanzawa Naoki 2020 S02E06 1080i HDTV AAC MPEG2-NSBC.mkv Format : Matroska Format version : Version 4 File size : 4.46 GiB Duration : 46 min 35 s Overall bit rate mode : Variable Overall bit rate : 13.7 Mb/s Movie name : Hanzawa Naoki 2020 S02E06 1080i HDTV AAC MPEG2-NSBC Encoded date : UTC 2020-08-23 14:24:37 Writing application : mkvmerge v29.0.0 ('Like It Or Not') 64-bit Writing library : libebml v1.3.6 + libmatroska v1.4.9 Video ID : 1 Format : MPEG Video Format version : Version 2 Format profile : Main@High Format settings : CustomMatrix / BVOP Format settings, BVOP : Yes Format settings, Matrix : Custom Format settings, GOP : M=3, N=15 Format settings, picture structure : Frame Codec ID : V_MPEG2 Codec ID/Info : MPEG 1 or 2 Video Duration : 46 min 35 s Bit rate mode : Variable Bit rate : 13.5 Mb/s Maximum bit rate : 20.0 Mb/s Width : 1 440 pixels Height : 1 080 pixels Display aspect ratio : 16:9 Frame rate mode : Constant Frame rate : 29.970 (30000/1001) FPS Color space : YUV Chroma subsampling : 4:2:0 Bit depth : 8 bits Scan type : Interlaced Scan order : Top Field First Compression mode : Lossy Bits/(Pixel*Frame) : 0.290 Time code of first frame : 00:00:00:00 Time code source : Group of pictures header GOP, Open/Closed : Open Stream size : 4.40 GiB (99%) Title : [NSBC] Default : Yes Forced : No Color primaries : BT.709 Transfer characteristics : BT.709 Matrix coefficients : BT.709 Audio ID : 2 Format : AAC LC Format/Info : Advanced Audio Codec Low Complexity Codec ID : A_AAC-2 Duration : 46 min 35 s Bit rate : 192 kb/s Channel(s) : 2 channels Channel layout : L R Sampling rate : 48.0 kHz Frame rate : 46.875 FPS (1024 SPF) Compression mode : Lossy Delay relative to video : -22 ms Stream size : 62.8 MiB (1%) Title : [NSBC] Language : Japanese Default : Yes Forced : No ```

File list

  • Hanzawa Naoki 2020 S02E06 1080i HDTV AAC MPEG2-NSBC.mkv (4.5 GiB)
Please could you re-seed [NSBC] High Position [HDTV] [1080p? There are 2 seeds but neither of them is uploading more than 1kps : ( I checked your website, but it looks like it's been hacked as when I clicked on search it just opened a suspicious looking ad-page on a new tab. You share some wonderful stuff, but it hardly ever gets seeded, it'd be great if you could think about crowdfunding a decent seedbox to keep your torrents alive....