[neoHEVC] A.I.C.O. Incarnation [BD 1080p x265 HEVC AAC AC3] [Dual Audio]

Category:
Date:
2020-08-23 11:33 UTC
Submitter:
Seeders:
4
Information:
Leechers:
0
File size:
3.7 GiB
Completed:
758
Info hash:
950f9aa0e89c0fc620f773a9571a12bebf74c6ea
![](https://i.imgur.com/2dVqnvx.png) *Join **[Discord](https://discord.gg/KYKYZUh)** for Current Projects, Encode-Requests and Seed-Request in case of no available seeds.* **A.I.C.O. Incarnation** *with `Dual Audio (Jpn/Eng)` and `Eng Subs` in `BD 1080p HEVC`* Reencode of [ReinForce] (x264 AVC FLAC) to (x265 HEVC AAC/AC3) with added English audio tracks from [DragsterPS] and English subtitles from [DmonHiro]. *Side Note: The BD has episode previews after the ending. Both my English audio source as well as my English subtitles source didn't. In other words, episode previews are untranslated both in subtitles and English dub. I didn't bother cutting them out all together so you get the chance to up your Japanese! はい、ネオボルン*先生。 ![](https://i.imgur.com/4iegWLL.png) **[Trailer](https://www.youtube.com/watch?v=CCfYQnOLHV0)** ![](https://i.imgur.com/3UxGuWB.png) ![](https://i.imgur.com/ZCtSawZ.png) **[MyAnimeList](https://myanimelist.net/anime/36039/AICO__Incarnation)** --- **Patch for Default Language / Subtitles Track** This comes with [English audio] as default track. I included an xDelta Patch for those who rather like [Japanese audio] as default. > Simply put all the video files into the Patch folder and run the patch file depending on your OS (for Windows: run '*3.Apply Patch-Windows.bat*'). > Consult '*readme.txt*' if you need help. --- **Synopsis** In 2035, an incident known as “The Burst” occurs at a Japanese research facility, giving birth to the rapidly expanding, consuming, and self-replicating "Matter." Snaking its way through the remains of dams and military facilities in the Kurobe Gorge, the hostile Matter is besieged by task forces trying to prevent it from reaching the ocean and mercenaries seeking the truth behind its existence. Aiko Tachibana lives under constant medical surveillance after being rescued from the Matter. She spends her days waiting out her recovery by making paper planes. Soon, her daily life at school is disturbed by the arrival of transfer student Yuuya Kanzaki, who proceeds to point out a number of inconsistencies regarding her body. Why is she never injured, and why does she suddenly no longer need her wheelchair? He claims that there is more to her existence than she has been led to believe, and that she alone holds the key to ending The Burst. With many factions now interested in Aiko, she and Yuuya must gather allies and embark on a dangerous pilgrimage into the heart of the infested gorge before the net can close around them. To escape the conspiracy moving against them, the pair must face off against the Matter—an enemy that flows like water. ![](https://i.imgur.com/qq9OD6M.png) --- **Comparison** (avc: source, hevc: encode) *Open links, toggle with mouseclick and check title.* [![](https://i.imgur.com/BL8ld6J.png)](https://slow.pics/c/ty8KxGhd) [![](https://i.imgur.com/PMvA8GH.png)](https://slow.pics/c/1WKwZf23) [![](https://i.imgur.com/z21xyIf.png)](https://slow.pics/c/NWAqFYG8) --- **Source** ?️ Video and Jpn Audio: [ReinForce] https://nyaa.si/view/1130466 ?️ Eng Audio: [DragsterPS] https://nyaa.si/view/1013834 ?️ Subs: [DmonHiro] https://nyaa.si/view/1131034 ? *Subtitles Info: [Netflix] - Format `ASS`* --- **Media Info** ? [Full Mediainfo incl. Encoder Settings](https://pastebin.com/6rScGA4P) ``` General Unique ID : 127430377774269431965952799826869299672 (0x5FDE32B29E5FE9805E0389489EED29D8) Complete name : A.I.C.O. Incarnation - S01E01.mkv Format : Matroska Format version : Version 4 File size : 267 MiB Duration : 24 min 33 s Overall bit rate : 1 522 kb/s Movie name : A.I.C.O. Incarnation - S01E01 Encoded date : UTC 2020-08-18 10:48:31 Writing application : mkvmerge v47.0.0 ('Black Flag') 64-bit Writing library : libebml v1.3.10 + libmatroska v1.5.2 / Lavf58.47.100 Video ID : 1 Format : HEVC Format/Info : High Efficiency Video Coding Format profile : Main 10@L4@High Codec ID : V_MPEGH/ISO/HEVC Duration : 24 min 33 s Bit rate : 1 180 kb/s Width : 1 920 pixels Height : 1 080 pixels Display aspect ratio : 16:9 Frame rate mode : Constant Frame rate : 23.976 (24000/1001) FPS Color space : YUV Chroma subsampling : 4:2:0 Bit depth : 10 bits Bits/(Pixel*Frame) : 0.024 Stream size : 207 MiB (77%) Writing library : x265 3.2.1+1-b5c86a64bbbe:[Windows][GCC 9.2.0][64 bit] 10bit Encoding settings : <Check Link Above> Default : Yes Forced : No Color range : Limited Color primaries : BT.709 Transfer characteristics : BT.709 Matrix coefficients : BT.709 Audio #1 ID : 2 Format : E-AC-3 Format/Info : Enhanced AC-3 Commercial name : Dolby Digital Plus Codec ID : A_EAC3 Duration : 24 min 21 s Bit rate mode : Constant Bit rate : 128 kb/s Channel(s) : 2 channels Channel layout : L R Sampling rate : 48.0 kHz Frame rate : 31.250 FPS (1536 SPF) Compression mode : Lossy Delay relative to video : -27 ms Stream size : 22.3 MiB (8%) Title : Stereo - ENG (AC3) Language : English Service kind : Complete Main Default : Yes Forced : Yes Audio #2 ID : 3 Format : AAC LC Format/Info : Advanced Audio Codec Low Complexity Codec ID : A_AAC-2 Duration : 24 min 33 s Bit rate : 213 kb/s Channel(s) : 2 channels Channel layout : L R Sampling rate : 48.0 kHz Frame rate : 46.875 FPS (1024 SPF) Compression mode : Lossy Delay relative to video : -43 ms Stream size : 37.4 MiB (14%) Title : Stereo - JPN (AAC) Language : Japanese Default : No Forced : No Text ID : 4 Format : ASS Codec ID : S_TEXT/ASS Codec ID/Info : Advanced Sub Station Alpha Duration : 21 min 51 s Bit rate : 85 b/s Count of elements : 283 Compression mode : Lossless Stream size : 13.6 KiB (0%) Title : Dialog - ENG (ASS) Language : English Default : Yes Forced : No ```

File list

  • [neoHEVC] A.I.C.O. Incarnation [BD 1080p x265 HEVC AAC AC3] [Dual Audio]
    • Language Swap Patch
      • vcdiff
        • A.I.C.O. Incarnation - S01E01.mkv.vcdiff (80.3 KiB)
        • A.I.C.O. Incarnation - S01E02.mkv.vcdiff (80.1 KiB)
        • A.I.C.O. Incarnation - S01E03.mkv.vcdiff (81.4 KiB)
        • A.I.C.O. Incarnation - S01E04.mkv.vcdiff (82.8 KiB)
        • A.I.C.O. Incarnation - S01E05.mkv.vcdiff (77.4 KiB)
        • A.I.C.O. Incarnation - S01E06.mkv.vcdiff (81.7 KiB)
        • A.I.C.O. Incarnation - S01E07.mkv.vcdiff (80.1 KiB)
        • A.I.C.O. Incarnation - S01E08.mkv.vcdiff (79.0 KiB)
        • A.I.C.O. Incarnation - S01E09.mkv.vcdiff (79.7 KiB)
        • A.I.C.O. Incarnation - S01E10.mkv.vcdiff (80.5 KiB)
        • A.I.C.O. Incarnation - S01E11.mkv.vcdiff (79.0 KiB)
        • A.I.C.O. Incarnation - S01E12.mkv.vcdiff (90.8 KiB)
      • 1.Readme.txt (1.1 KiB)
      • 2.Changelog.txt (0 Bytes)
      • 3.Apply Patch-Linux.sh (2.3 KiB)
      • 3.Apply Patch-Mac.command (2.3 KiB)
      • 3.Apply Patch-Windows.bat (2.5 KiB)
      • xdelta-3.1.0-x86_64.exe (609.8 KiB)
      • xdelta3 (838.8 KiB)
      • xdelta3_mac (144.7 KiB)
    • A.I.C.O. Incarnation - S01E01.mkv (267.4 MiB)
    • A.I.C.O. Incarnation - S01E02.mkv (351.2 MiB)
    • A.I.C.O. Incarnation - S01E03.mkv (389.3 MiB)
    • A.I.C.O. Incarnation - S01E04.mkv (390.5 MiB)
    • A.I.C.O. Incarnation - S01E05.mkv (288.5 MiB)
    • A.I.C.O. Incarnation - S01E06.mkv (355.0 MiB)
    • A.I.C.O. Incarnation - S01E07.mkv (317.9 MiB)
    • A.I.C.O. Incarnation - S01E08.mkv (284.7 MiB)
    • A.I.C.O. Incarnation - S01E09.mkv (301.7 MiB)
    • A.I.C.O. Incarnation - S01E10.mkv (286.7 MiB)
    • A.I.C.O. Incarnation - S01E11.mkv (269.7 MiB)
    • A.I.C.O. Incarnation - S01E12.mkv (289.6 MiB)

neoborn (uploader)

User
Love the self insert in the poster, any particular reason she's your pfp. Also thanks for this release.(っ^▿^)

neoborn (uploader)

User
**@DIEdieDIEok** I can relate to Saten the most out of all the anime characters I have seen. A powerless girl in a world full of crazy strong espers but still manages to be usefull and does her best to help. "Almost" always happy and brings good vibes and if somebody needs a beating, grabs the bat and goes for home run! She is the little sunshine of the franchise and steals the whole show imo. If I were an anime character I'd be her =)
@neoborn Guess Im a bit cliche, Mikasa being my favorite with accelerator not too far behind. I will mention that I do love Saten's english dub, I find her voice particularly soothing. Anyways thanks for the reply, stay awesome. (っ^▿^)
Nice anime to watch, super thrilling! Your avatar girl, nice trick (I was fooled to think, "so maybe this is your fav series, with your fav girl in it,") haha! She looks so cheerful, and you've drawn a very lovely header pic for her. Master (先生), please keep them coming! ???
Hey, Thanks for this @neoborn. I really mean it.
Simply, impressive compression skills my friend. *Props*