[neoHEVC] Mushishi Zoku Shou: 2nd Season + Movie [Season 3] [BD 1080p x265 HEVC AAC]

Category:
Date:
2020-08-21 13:35 UTC
Submitter:
Seeders:
9
Information:
Leechers:
0
File size:
2.4 GiB
Completed:
769
Info hash:
5026a9b2ff702f8ffbcb54d99e10cf312324bed9
![](https://i.imgur.com/geEFUkn.png) *Join **[Discord](https://discord.gg/KYKYZUh)** for Current Projects, Encode-Requests and Seed-Request in case of no available seeds.* **Mushishi Zoku Shou: 2nd Season [Season 3]** Including *Mushishi Zoku Shou: Suzu no Shizuku [Movie]* *with `Jpn Dub` and `Eng Subs` in `BD 1080p HEVC`* Reencode of [UQW] (x264 AVC FLAC) to (x265 HEVC AAC) with added subtitles from [Vivid]. ![](https://i.imgur.com/4iegWLL.png) **[Trailer](https://www.youtube.com/watch?v=NY4F-bHksLo)** ![](https://i.imgur.com/3UxGuWB.png) ![](https://i.imgur.com/ZCtSawZ.png) **[MyAnimeList: Mushishi Zoku Shou: 2nd Season](https://myanimelist.net/anime/24701/Mushishi_Zoku_Shou_2nd_Season)** ![](https://i.imgur.com/3UxGuWB.png) ![](https://i.imgur.com/ZCtSawZ.png) **[MyAnimeList: Mushishi Zoku Shou: Suzu no Shizuku](https://myanimelist.net/anime/28957/Mushishi_Zoku_Shou__Suzu_no_Shizuku)** --- **Related Releases:** 1️⃣ [Season 1: Mushishi](https://nyaa.si/view/1272875) 2️⃣ [Season 2: Mushishi Zoku Shou + Hihamukage + Odore no Michi](https://nyaa.si/view/1273128) --- **View Order** - Mushishi [Season 1] - Mushishi: Hihamukage [Season 2 Special] - Mushishi Zoku Shou [Season 2] - Mushishi Zoku Shou: Odoro no Michi [Season 2 Special EP 11] - Mushishi Zoku Shou: 2nd Season [Season 3] - Mushishi Zoku Shou: Suzu no Shizuku [Movie] --- **Synopsis** Ghostly, primordial beings known as Mushi continue to cause mysterious changes in the lives of humans. The travelling Mushishi, Ginko, persists in trying to set right the strange and unsettling situations he encounters. Time loops, living shadows, and telepathy are among the overt effects of interference from Mushi, but more subtle symptoms that take years to be noticed also rouse Ginko's concern as he passes from village to village. Through circumstance, Ginko has become an arbiter, determining which Mushi are blessings and which are curses. But the lines that he seeks to draw are subjective. Some of his patients would rather exercise their new powers until they are utterly consumed by them; others desperately strive to rid themselves of afflictions which are in fact protecting their lives from devastation. Those who cross paths with Mushi must learn to accept seemingly impossible consequences for their actions, and heal wounds they did not know they had. Otherwise, they risk meeting with fates beyond their comprehension. ![](https://i.imgur.com/Hx3vBJj.png) --- **Comparison** (avc: source, hevc: encode) *Open links, toggle with mouseclick and check title.* [![](https://i.imgur.com/m2r5T3J.png)](https://slow.pics/c/PU4Uynbo) [![](https://i.imgur.com/Jv573qM.png)](https://slow.pics/c/zvkRFpxN) [![](https://i.imgur.com/ESYUC5W.png)](https://slow.pics/c/9mtsEJkM) --- **Source** ?️ Video, Audio and Subs: [UQW] https://nyaa.si/view/1185366 ? *Subtitles Info: [Vivid] - Format `ASS`* --- **Media Info** ``` General Unique ID : 192047312833734958264995606348247243211 (0x907AF790C1ABD0DF295F9E45234699CB) Complete name : Mushishi Zoku Shou 2nd Season - S03E01.mkv Format : Matroska Format version : Version 4 File size : 243 MiB Duration : 23 min 47 s Overall bit rate : 1 430 kb/s Movie name : Mushishi TV 3 01 серия Encoded date : UTC 2020-08-16 10:27:07 Writing application : mkvmerge v47.0.0 ('Black Flag') 64-bit Writing library : libebml v1.3.10 + libmatroska v1.5.2 / Lavf58.29.100 Attachments : Ignite the Light.ttf / Mixage Bold BT.ttf / Mixage Bold Italic BT.ttf / MushiShiver.ttf / Phantasia.ttf / vega-antikva.ttf Video ID : 1 Format : HEVC Format/Info : High Efficiency Video Coding Format profile : Main 10@L4@High Codec ID : V_MPEGH/ISO/HEVC Duration : 23 min 47 s Bit rate : 1 195 kb/s Width : 1 920 pixels Height : 1 080 pixels Display aspect ratio : 16:9 Frame rate mode : Constant Frame rate : 23.976 (24000/1001) FPS Color space : YUV Chroma subsampling : 4:2:0 Bit depth : 10 bits Bits/(Pixel*Frame) : 0.024 Stream size : 203 MiB (84%) Writing library : x265 3.2.1+1-b5c86a64bbbe:[Windows][GCC 9.2.0][64 bit] 10bit Encoding settings : cpuid=1111039 / frame-threads=2 / numa-pools=4 / wpp / no-pmode / no-pme / no-psnr / no-ssim / log-level=2 / input-csp=1 / input-res=1920x1080 / interlace=0 / total-frames=0 / level-idc=40 / high-tier=1 / uhd-bd=0 / ref=5 / no-allow-non-conformance / no-repeat-headers / annexb / no-aud / no-hrd / info / hash=0 / no-temporal-layers / open-gop / min-keyint=24 / keyint=240 / gop-lookahead=0 / bframes=8 / b-adapt=2 / b-pyramid / bframe-bias=0 / rc-lookahead=25 / lookahead-slices=4 / scenecut=40 / radl=0 / no-splice / no-intra-refresh / ctu=64 / min-cu-size=8 / rect / no-amp / max-tu-size=32 / tu-inter-depth=1 / tu-intra-depth=1 / limit-tu=0 / rdoq-level=2 / dynamic-rd=0.00 / no-ssim-rd / signhide / no-tskip / nr-intra=0 / nr-inter=0 / no-constrained-intra / strong-intra-smoothing / max-merge=3 / limit-refs=3 / limit-modes / me=3 / subme=3 / merange=57 / temporal-mvp / no-hme / weightp / no-weightb / no-analyze-src-pics / deblock=0:0 / sao / no-sao-non-deblock / rd=4 / selective-sao=4 / no-early-skip / rskip / no-fast-intra / no-tskip-fast / no-cu-lossless / no-b-intra / no-splitrd-skip / rdpenalty=0 / psy-rd=0.00 / psy-rdoq=1.00 / no-rd-refine / no-lossless / cbqpoffs=0 / crqpoffs=0 / rc=crf / crf=19.0 / qcomp=0.60 / qpstep=4 / stats-write=0 / stats-read=0 / vbv-maxrate=30000 / vbv-bufsize=30000 / vbv-init=0.9 / crf-max=0.0 / crf-min=0.0 / ipratio=1.40 / pbratio=1.30 / aq-mode=3 / aq-strength=0.80 / cutree / zone-count=0 / no-strict-cbr / qg-size=32 / no-rc-grain / qpmax=69 / qpmin=0 / no-const-vbv / sar=1 / overscan=0 / videoformat=5 / range=0 / colorprim=1 / transfer=1 / colormatrix=1 / chromaloc=0 / display-window=0 / cll=0,0 / min-luma=0 / max-luma=1023 / log2-max-poc-lsb=8 / vui-timing-info / vui-hrd-info / slices=1 / no-opt-qp-pps / no-opt-ref-list-length-pps / no-multi-pass-opt-rps / scenecut-bias=0.05 / no-opt-cu-delta-qp / no-aq-motion / no-hdr / no-hdr-opt / no-dhdr10-opt / no-idr-recovery-sei / analysis-reuse-level=5 / scale-factor=0 / refine-intra=0 / refine-inter=0 / refine-mv=1 / refine-ctu-distortion=0 / no-limit-sao / ctu-info=0 / no-lowpass-dct / refine-analysis-type=0 / copy-pic=1 / max-ausize-factor=1.0 / no-dynamic-refine / no-single-sei / no-hevc-aq / no-svt / no-field / qp-adaptation-range=1.00 Default : Yes Forced : No Color range : Limited Color primaries : BT.709 Transfer characteristics : BT.709 Matrix coefficients : BT.709 Audio ID : 2 Format : AAC LC Format/Info : Advanced Audio Codec Low Complexity Codec ID : A_AAC-2 Duration : 23 min 47 s Bit rate : 230 kb/s Channel(s) : 2 channels Channel layout : L R Sampling rate : 48.0 kHz Frame rate : 46.875 FPS (1024 SPF) Compression mode : Lossy Delay relative to video : -43 ms Stream size : 39.2 MiB (16%) Title : [Original] Language : Japanese Default : Yes Forced : No Text ID : 3 Format : ASS Codec ID : S_TEXT/ASS Codec ID/Info : Advanced Sub Station Alpha Duration : 23 min 27 s Bit rate : 69 b/s Count of elements : 197 Compression mode : Lossless Stream size : 12.0 KiB (0%) Default : Yes Forced : No Menu 00:00:00.000 : :OP 00:01:36.096 : :Episode 13 00:22:40.818 : :ED 00:23:41.045 : :Next ```

File list

  • [neoHEVC] Mushishi Zoku Shou 2nd Season + Movie [Season 3] [BD 1080p x265 HEVC AAC]
    • Suzu no Shizuku
      • Mushishi Zoku Shou - Suzu no Shizuku.mkv (447.4 MiB)
    • Mushishi Zoku Shou 2nd Season - S03E01.mkv (243.3 MiB)
    • Mushishi Zoku Shou 2nd Season - S03E02.mkv (154.3 MiB)
    • Mushishi Zoku Shou 2nd Season - S03E03.mkv (128.3 MiB)
    • Mushishi Zoku Shou 2nd Season - S03E04.mkv (219.8 MiB)
    • Mushishi Zoku Shou 2nd Season - S03E05.mkv (212.7 MiB)
    • Mushishi Zoku Shou 2nd Season - S03E06.mkv (239.4 MiB)
    • Mushishi Zoku Shou 2nd Season - S03E07.mkv (182.5 MiB)
    • Mushishi Zoku Shou 2nd Season - S03E08.mkv (211.1 MiB)
    • Mushishi Zoku Shou 2nd Season - S03E09.mkv (227.9 MiB)
    • Mushishi Zoku Shou 2nd Season - S03E10.mkv (188.8 MiB)
Can you do a non HEVC ver plz?

neoborn (uploader)

User
**@oreharu** I am doing these HEVC versions primarily for my own collection (mostly for shows that were not available in HEVC at the time) and share them here to save others the trouble. I only need HEVC and not AVC. That said, my source usually is an AVC encode (either raw or high quality release with subs/dubs in already). Check the source linked above and you will find the AVC files this is based on =) *The subs and font attachmenets are not in the video container files in the source. They are in seperate folders. Though the subtitles are already perfectly timed. Simply mux them with mkvtoolnix and you have your AVC version with the same subtitles. (It's not that hard. Google it and I promise you will manage. If not, hit me up in discord and I can give you a hand)*