[NSBC] Unsung Cinderella E06 [WEBDL] [1080p]

Category:
Date:
2020-08-21 09:22 UTC
Submitter:
Seeders:
7
Information:
TlNCQy50bwo=
Leechers:
1
File size:
746.4 MiB
Completed:
788
Info hash:
9519fef661ce63c18181da7a86a7ba1cf2bfdd55
> ### From Viu > ### In case there is no seeder, visit [here](https://nsbc.xyz/?p=25) > ### Subs at [Subscene](https://subscene.com/subtitles/unsung-cinderella-midori-the-hospital-pharmacist-unsung-cinderella-byoin-yakuzaishi-no-shohosen) ![](https://img.topddl.net/images/2020/07/16/wbhjfr_4o02_cxbg_002_wm.jpg "") ![](https://img.topddl.net/images/2020/08/21/Unsung-Cinderella-S01E06-1080p-WEB-DL-AAC-H.264-NSBC.mkv.jpg "") ``` General Unique ID : 258725464872015385229046834906336786976 (0xC2A4B646C33C87C1700754CA9D5EFA20) Complete name : Unsung Cinderella S01E06 1080p WEB-DL AAC H.264-NSBC.mkv Format : Matroska Format version : Version 4 File size : 746 MiB Duration : 45 min 38 s Overall bit rate mode : Variable Overall bit rate : 2 286 kb/s Movie name : Unsung Cinderella S01E06 1080p WEB-DL AAC H.264-NSBC Encoded by : NoNe | NSBC Encoded date : UTC 2020-08-21 09:18:20 Writing application : mkvmerge v29.0.0 ('Like It Or Not') 64-bit Writing library : libebml v1.3.6 + libmatroska v1.4.9 Copyright : NSBC Comment : NoNe | NSBC DATE_RECORDED : 2020 NOTICE ME : SENPAI WEBSITE : NSBC.to Video ID : 1 Format : AVC Format/Info : Advanced Video Codec Format profile : High@L4.1 Format settings : CABAC / 4 Ref Frames Format settings, CABAC : Yes Format settings, Reference frames : 4 frames Codec ID : V_MPEG4/ISO/AVC Duration : 45 min 38 s Bit rate mode : Variable Bit rate : 2 187 kb/s Maximum bit rate : 4 500 kb/s Width : 1 920 pixels Height : 1 080 pixels Display aspect ratio : 16:9 Frame rate mode : Constant Frame rate : 29.970 (30000/1001) FPS Original frame rate : 29.970 (29970/1000) FPS Color space : YUV Chroma subsampling : 4:2:0 Bit depth : 8 bits Scan type : Progressive Bits/(Pixel*Frame) : 0.035 Stream size : 714 MiB (96%) Title : [NSBC] Writing library : VOLO1.4.1 Default : Yes Forced : No Audio ID : 2 Format : AAC LC Format/Info : Advanced Audio Codec Low Complexity Codec ID : A_AAC-2 Duration : 45 min 38 s Bit rate : 96.0 kb/s Channel(s) : 2 channels Channel layout : L R Sampling rate : 48.0 kHz Frame rate : 46.875 FPS (1024 SPF) Compression mode : Lossy Delay relative to video : -42 ms Stream size : 31.3 MiB (4%) Title : [NSBC] Language : Japanese Default : Yes Forced : No Text ID : 3 Format : UTF-8 Codec ID : S_TEXT/UTF8 Codec ID/Info : UTF-8 Plain Text Duration : 45 min 30 s Bit rate : 74 b/s Count of elements : 763 Stream size : 24.7 KiB (0%) Title : [NSBC] Language : English Default : No Forced : No ```

File list

  • Unsung Cinderella S01E06 1080p WEB-DL AAC H.264-NSBC.mkv (746.4 MiB)
Hi, i would like to request Ojisan wa Kawaii Mono ga Osuki Hulu original drama, if possible. It will be broadcasted in Hulu right after the episode 3,4,5 is broadcasted on the TV. Thanks in advance!

NOSoba (uploader)

User
i cant promise, but lets see
I can't leave a comment on your blog, but I want to say thank you so much for uploading Ojikawa special ep from Hulu!!! <3 Much appreciated!
Hi, thank you so much for completing Ojikawa raws! <3 But I still couldn't download the raw for last ep spin off as there is no link in the Spin-off text? Could you update the link for the last ep spin off pleasee i really want to watch it ><'' thank you so so much for your hard work!