[neoHEVC] Mushishi Zoku Shou + Specials [Season 2] [BD 1080p x265 HEVC AAC]

Category:
Date:
2020-08-20 14:29 UTC
Submitter:
Seeders:
15
Information:
Leechers:
1
File size:
3.6 GiB
Completed:
1419
Info hash:
ef7284b76e295c740f45a353ef3f7e21435ebdaf
![](https://i.imgur.com/geEFUkn.png) *Join **[Discord](https://discord.gg/KYKYZUh)** for Current Projects, Encode-Requests and Seed-Request in case of no available seeds.* **Mushishi Zoku Shou [Season 2]** Including *[Season 2 Specials] Hihamukage + Odore no Michi* *with `Jpn Dub` and `Eng Subs` in `BD 1080p HEVC`* Reencode of [UQW] (x264 AVC FLAC) to (x265 HEVC AAC) with added subtitles from [Vivid]. ![](https://i.imgur.com/4iegWLL.png) **[Trailer](https://www.youtube.com/watch?v=CXhPRWY1L0E)** ![](https://i.imgur.com/3UxGuWB.png) ![](https://i.imgur.com/ZCtSawZ.png) **[MyAnimeList: Mushishi Zoku Shou](https://myanimelist.net/anime/21939/Mushishi_Zoku_Shou)** ![](https://i.imgur.com/3UxGuWB.png) ![](https://i.imgur.com/ZCtSawZ.png) **[MyAnimeList: Mushishi: Hihamukage](https://myanimelist.net/anime/21329/Mushishi__Hihamukage)** ![](https://i.imgur.com/3UxGuWB.png) ![](https://i.imgur.com/ZCtSawZ.png) **[MyAnimeList: Mushishi: Odore no Michi](https://myanimelist.net/anime/24687/Mushishi_Zoku_Shou__Odoro_no_Michi)** --- **Related Releases:** 1️⃣ [Season 1: Mushishi](https://nyaa.si/view/1272875) 3️⃣ [Season 3: Mushishi Zoku Shou: 2nd Season + Suzu no Shizuku](https://nyaa.si/view/1273350) --- **View Order** - Mushishi [Season 1] - Mushishi: Hihamukage [Season 2 Special] - Mushishi Zoku Shou [Season 2] - Mushishi Zoku Shou: Odoro no Michi [Season 2 Special EP 11] - Mushishi Zoku Shou: 2nd Season [Season 3] - Mushishi Zoku Shou: Suzu no Shizuku [Movie] --- **Synopsis** Perceived as strange and feared by man, over time the misshapen ones came to be known as Mushi. Although they harbor no ill intentions towards humans, many suffer from the side effects of their existence and strange nature; exploiting the Mushi without understanding them, even unintentionally, can lead to disaster and strife for any involved. Mushishi Zoku Shou continues the story of Mushishi Ginko on his journey to help the visible world to coexist with the Mushi. During his travels, Ginko discovers various gifted individuals—those cursed by circumstance and those maintaining a fragile symbiosis with the Mushi—inevitably confronting the question of whether humanity, talented and tortured alike, can manage the responsibility of the unseen. Moreover, as a Mushishi, Ginko must learn more about these strange beings and decide if he has the right to interfere with the complex relationships between Mushi and mankind. ![](https://i.imgur.com/MsadIGj.png) --- **Comparison** (avc: source, hevc: encode) *Open links, toggle with mouseclick and check title.* [![](https://i.imgur.com/sVZ1gmi.png)](https://slow.pics/c/lDjeCa60) [![](https://i.imgur.com/ZH0LepL.png)](https://slow.pics/c/4TpMIJzq) [![](https://i.imgur.com/YX6RFc0.png)](https://slow.pics/c/22ZtyYO9) --- **Source** ?️ Video, Audio and Subs: [UQW] https://nyaa.si/view/1185366 ? *Subtitles Info: [Vivid] - Format `ASS`* --- **Media Info** ``` General Unique ID : 87931092710732474404838048849372391659 (0x4226E9964928C140F129B1402D5428EB) Complete name : Mushishi Zoku Shou - S02E01.mkv Format : Matroska Format version : Version 4 File size : 233 MiB Duration : 23 min 46 s Overall bit rate : 1 367 kb/s Movie name : Mushishi Zoku Shou - S02E01 Encoded date : UTC 2020-08-16 10:43:10 Writing application : mkvmerge v47.0.0 ('Black Flag') 64-bit Writing library : libebml v1.3.10 + libmatroska v1.5.2 / Lavf58.29.100 Attachments : Ignite the Light.ttf / Mixage Bold BT.ttf / Mixage Bold Italic BT.ttf / MushiShiver.ttf / Phantasia.ttf / vega-antikva.ttf Video ID : 1 Format : HEVC Format/Info : High Efficiency Video Coding Format profile : Main 10@L4@High Codec ID : V_MPEGH/ISO/HEVC Duration : 23 min 46 s Bit rate : 1 147 kb/s Width : 1 920 pixels Height : 1 080 pixels Display aspect ratio : 16:9 Frame rate mode : Constant Frame rate : 23.976 (24000/1001) FPS Color space : YUV Chroma subsampling : 4:2:0 Bit depth : 10 bits Bits/(Pixel*Frame) : 0.023 Stream size : 195 MiB (84%) Writing library : x265 3.2.1+1-b5c86a64bbbe:[Windows][GCC 9.2.0][64 bit] 10bit Encoding settings : cpuid=1111039 / frame-threads=2 / numa-pools=4 / wpp / no-pmode / no-pme / no-psnr / no-ssim / log-level=2 / input-csp=1 / input-res=1920x1080 / interlace=0 / total-frames=0 / level-idc=40 / high-tier=1 / uhd-bd=0 / ref=5 / no-allow-non-conformance / no-repeat-headers / annexb / no-aud / no-hrd / info / hash=0 / no-temporal-layers / open-gop / min-keyint=24 / keyint=240 / gop-lookahead=0 / bframes=8 / b-adapt=2 / b-pyramid / bframe-bias=0 / rc-lookahead=25 / lookahead-slices=4 / scenecut=40 / radl=0 / no-splice / no-intra-refresh / ctu=64 / min-cu-size=8 / rect / no-amp / max-tu-size=32 / tu-inter-depth=1 / tu-intra-depth=1 / limit-tu=0 / rdoq-level=2 / dynamic-rd=0.00 / no-ssim-rd / signhide / no-tskip / nr-intra=0 / nr-inter=0 / no-constrained-intra / strong-intra-smoothing / max-merge=3 / limit-refs=3 / limit-modes / me=3 / subme=3 / merange=57 / temporal-mvp / no-hme / weightp / no-weightb / no-analyze-src-pics / deblock=0:0 / sao / no-sao-non-deblock / rd=4 / selective-sao=4 / no-early-skip / rskip / no-fast-intra / no-tskip-fast / no-cu-lossless / no-b-intra / no-splitrd-skip / rdpenalty=0 / psy-rd=0.00 / psy-rdoq=1.00 / no-rd-refine / no-lossless / cbqpoffs=0 / crqpoffs=0 / rc=crf / crf=19.0 / qcomp=0.60 / qpstep=4 / stats-write=0 / stats-read=0 / vbv-maxrate=30000 / vbv-bufsize=30000 / vbv-init=0.9 / crf-max=0.0 / crf-min=0.0 / ipratio=1.40 / pbratio=1.30 / aq-mode=3 / aq-strength=0.80 / cutree / zone-count=0 / no-strict-cbr / qg-size=32 / no-rc-grain / qpmax=69 / qpmin=0 / no-const-vbv / sar=1 / overscan=0 / videoformat=5 / range=0 / colorprim=1 / transfer=1 / colormatrix=1 / chromaloc=0 / display-window=0 / cll=0,0 / min-luma=0 / max-luma=1023 / log2-max-poc-lsb=8 / vui-timing-info / vui-hrd-info / slices=1 / no-opt-qp-pps / no-opt-ref-list-length-pps / no-multi-pass-opt-rps / scenecut-bias=0.05 / no-opt-cu-delta-qp / no-aq-motion / no-hdr / no-hdr-opt / no-dhdr10-opt / no-idr-recovery-sei / analysis-reuse-level=5 / scale-factor=0 / refine-intra=0 / refine-inter=0 / refine-mv=1 / refine-ctu-distortion=0 / no-limit-sao / ctu-info=0 / no-lowpass-dct / refine-analysis-type=0 / copy-pic=1 / max-ausize-factor=1.0 / no-dynamic-refine / no-single-sei / no-hevc-aq / no-svt / no-field / qp-adaptation-range=1.00 Default : Yes Forced : No Color range : Limited Color primaries : BT.709 Transfer characteristics : BT.709 Matrix coefficients : BT.709 Audio ID : 2 Format : AAC LC Format/Info : Advanced Audio Codec Low Complexity Codec ID : A_AAC-2 Duration : 23 min 46 s Bit rate : 216 kb/s Channel(s) : 2 channels Channel layout : L R Sampling rate : 48.0 kHz Frame rate : 46.875 FPS (1024 SPF) Compression mode : Lossy Delay relative to video : -43 ms Stream size : 36.7 MiB (16%) Title : Stereo - JPN (AAC) Language : Japanese Default : Yes Forced : No Text ID : 3 Format : ASS Codec ID : S_TEXT/ASS Codec ID/Info : Advanced Sub Station Alpha Duration : 23 min 42 s Bit rate : 123 b/s Count of elements : 319 Compression mode : Lossless Stream size : 21.4 KiB (0%) Title : Dialog - ENG (ASS) Language : English Default : Yes Forced : No Menu 00:00:00.000 : :Intro 00:00:28.362 : :OP 00:02:04.374 : :Episode 1 00:22:09.703 : :ED 00:23:40.544 : :Next ```

File list

  • [neoHEVC] Mushishi Zoku Shou + Specials [Season 2] [BD 1080p x265 HEVC AAC]
    • Mushishi Hihamukage - S02E00.mkv (306.4 MiB)
    • Mushishi Zoku Shou - S02E01.mkv (232.5 MiB)
    • Mushishi Zoku Shou - S02E02.mkv (239.4 MiB)
    • Mushishi Zoku Shou - S02E03.mkv (405.2 MiB)
    • Mushishi Zoku Shou - S02E04.mkv (210.3 MiB)
    • Mushishi Zoku Shou - S02E05.mkv (264.4 MiB)
    • Mushishi Zoku Shou - S02E06.mkv (257.3 MiB)
    • Mushishi Zoku Shou - S02E07.mkv (311.1 MiB)
    • Mushishi Zoku Shou - S02E08.mkv (269.7 MiB)
    • Mushishi Zoku Shou - S02E09.mkv (367.9 MiB)
    • Mushishi Zoku Shou - S02E10.mkv (480.6 MiB)
    • Mushishi Zoku Shou - S02E11 - Odore no Michi.mkv (389.3 MiB)
Still can't believe one of my favourite songs of all time is somehow also this anime's opening
Thanks neo! Wish Zhou had an end dub. Hopefully we'll have it in the future