[neoHEVC] High Score Girl [Season 2 + Season 1 OVA] [BD 1080p x265 HEVC AAC AC3] [Dual Audio]

Category:
Date:
2020-08-18 11:31 UTC
Submitter:
Seeders:
27
Information:
Leechers:
1
File size:
3.8 GiB
Completed:
3218
Info hash:
d937934fb6198026f11caa9865dac4f15902ee01
![](https://i.imgur.com/geEFUkn.png) *Join **[Discord](https://discord.gg/KYKYZUh)** for Current Projects, Encode-Requests and Seed-Request in case of no available seeds.*   **High Score Girl [Season 2]** Including *Extra Stage [Season 1 OVA] (WEB)* *with `Dual Audio (Jpn/Eng)` and `Eng Subs` in `BD 1080p HEVC`*   [Season 1 OVA]: Reencode of [DragsterPS] (x264 AVC AC3) to (x265 HEVC AC3). [Season 2]: Reencode of [Okay-Raws] (x264 AVC AAC) to (x265 HEVC AAC) with added English audio and subtitle tracks from [EMBER]. *Side Note: I created an additional [English Songs Track] from the full English track and added the OP/ED in Episode 1 that was missing.*   ![](https://i.imgur.com/4iegWLL.png) **[Trailer](https://www.youtube.com/watch?v=Dn49GoMGLgo)** ![](https://i.imgur.com/3UxGuWB.png) ![](https://i.imgur.com/ZCtSawZ.png) **[MyAnimeList: High Score Girl Season 2](https://myanimelist.net/anime/39570/High_Score_Girl_II)** ![](https://i.imgur.com/3UxGuWB.png) ![](https://i.imgur.com/ZCtSawZ.png) **[MyAnimeList: High Score Girl: Extra Stage](https://myanimelist.net/anime/38422/High_Score_Girl__Extra_Stage)** --- **Patch for Default Language / Subtitles Track** This comes with [English audio] and [Songs subtitles] as default tracks. I included an xDelta Patch for those who rather like [Japanese audio] with [Dialog subtitles] as default. > Simply put all the video files into the Patch folder and run the patch file depending on your OS (for Windows: run '*3.Apply Patch-Windows.bat*'). > Consult '*readme.txt*' if you need help. ---   **Synopsis** The year is 1996, and second-year high school students Haruo Yaguchi, Akira Oono, and Koharu Hidaka live their lives as passionately about video games as they were five years ago. Brought together by arcade games, what began as a healthy rivalry and friendship has turned into something more. As they endeavour towards understanding their unfamiliar feelings, they work with allies, navigate high school, and find that, although life has its many challenges, there's always a game or two they can rely on.   ![](https://i.imgur.com/CgF0Qm9.png) --- **Comparison** (avc: source, hevc: encode) *Open links, toggle with mouseclick and check title.*   [![](https://i.imgur.com/XgRU4qW.png)](https://slow.pics/c/j12WAfXf) [![](https://i.imgur.com/snhocKD.png)](https://slow.pics/c/1DgU13KZ) [![](https://i.imgur.com/BaN2UON.png)](https://slow.pics/c/i4NWw77g) --- **Source** ?️ [Season 2] Video and Jpn Audio: [Okay-Raws] https://nyaa.si/view/1247570 ?️ [Season 2] Eng Audio and Subs: [EMBER] https://nyaa.si/view/1250856 ?️ [Season 1 OVA] Video, Audio and Subs: [DragsterPS] https://nyaa.si/view/1128433 ? *Subtitles Info: - Format `ASS`* --- **Media Info** ? [Full Mediainfo incl. Encoder Settings](https://pastebin.com/cjEAGAwm) ``` General Unique ID : 100383427903959975302555064132614034011 (0x4B85251CE35A4DA69DE88960D65D125B) Complete name : High Score Girl - S02E01.mkv Format : Matroska Format version : Version 4 File size : 312 MiB Duration : 23 min 50 s Overall bit rate : 1 828 kb/s Movie name : High Score Girl - S02E01 Encoded date : UTC 2020-08-17 22:28:46 Writing application : mkvmerge v47.0.0 ('Black Flag') 64-bit Writing library : libebml v1.3.10 + libmatroska v1.5.2 / Lavf58.47.100 Video ID : 1 Format : HEVC Format/Info : High Efficiency Video Coding Format profile : Main 10@L4.1@High Codec ID : V_MPEGH/ISO/HEVC Duration : 23 min 40 s Bit rate : 1 445 kb/s Width : 1 920 pixels Height : 1 080 pixels Display aspect ratio : 16:9 Frame rate mode : Constant Frame rate : 59.940 (60000/1001) FPS Color space : YUV Chroma subsampling : 4:2:0 Bit depth : 10 bits Bits/(Pixel*Frame) : 0.012 Stream size : 245 MiB (78%) Writing library : x265 3.2.1+1-b5c86a64bbbe:[Windows][GCC 9.2.0][64 bit] 10bit Encoding settings : <Check Link Above> Default : Yes Forced : No Color range : Limited Color primaries : BT.709 Transfer characteristics : BT.709 Matrix coefficients : BT.709 Audio #1 ID : 2 Format : AAC LC SBR Format/Info : Advanced Audio Codec Low Complexity with Spectral Band Replication Commercial name : HE-AAC Format settings : Explicit Codec ID : A_AAC-2 Duration : 23 min 40 s Bit rate : 128 kb/s Channel(s) : 2 channels Channel layout : L R Sampling rate : 48.0 kHz Frame rate : 23.438 FPS (2048 SPF) Compression mode : Lossy Stream size : 21.7 MiB (7%) Title : Stereo - ENG (AAC) Language : English Default : Yes Forced : Yes Audio #2 ID : 3 Format : AAC LC Format/Info : Advanced Audio Codec Low Complexity Codec ID : A_AAC-2 Duration : 23 min 40 s Bit rate : 265 kb/s Channel(s) : 2 channels Channel layout : L R Sampling rate : 48.0 kHz Frame rate : 46.875 FPS (1024 SPF) Compression mode : Lossy Stream size : 44.4 MiB (14%) Title : Stereo - JPN (AAC) Language : Japanese Default : No Forced : No Text #1 ID : 4 Format : ASS Codec ID : S_TEXT/ASS Codec ID/Info : Advanced Sub Station Alpha Duration : 22 min 0 s Bit rate : 511 b/s Count of elements : 95 Compression mode : Lossless Stream size : 82.6 KiB (0%) Title : Songs - ENG (ASS) Language : English Default : Yes Forced : Yes Text #2 ID : 5 Format : ASS Codec ID : S_TEXT/ASS Codec ID/Info : Advanced Sub Station Alpha Duration : 23 min 50 s Bit rate : 562 b/s Count of elements : 356 Compression mode : Lossless Stream size : 98.1 KiB (0%) Title : Dialog - ENG (ASS) Language : English Default : No Forced : No Menu 00:00:00.000 : :Chapter 1 00:01:00.093 : :Chapter 2 00:02:30.017 : :Chapter 3 00:13:15.995 : :Chapter 4 00:21:54.980 : :Chapter 5 00:23:25.004 : :Chapter 6  ```

File list

  • [neoHEVC] High Score Girl [Season 2] + [Season 1 OVA] [BD 1080p x265 HEVC AAC AC3] [Dual Audio]
    • Extra Stage (Season 1 OVA)
      • High Score Girl - S01E13 - (Extra Stage OVA).mkv (266.7 MiB)
      • High Score Girl - S01E14 - (Extra Stage OVA).mkv (414.9 MiB)
      • High Score Girl - S01E15 - (Extra Stage OVA).mkv (225.2 MiB)
    • Language Swap Patch
      • vcdiff
        • High Score Girl - S01E13 - (Extra Stage OVA).mkv.vcdiff (60.7 KiB)
        • High Score Girl - S01E14 - (Extra Stage OVA).mkv.vcdiff (65.4 KiB)
        • High Score Girl - S01E15 - (Extra Stage OVA).mkv.vcdiff (58.8 KiB)
        • High Score Girl - S02E01.mkv.vcdiff (98.8 KiB)
        • High Score Girl - S02E02.mkv.vcdiff (99.9 KiB)
        • High Score Girl - S02E03.mkv.vcdiff (96.3 KiB)
        • High Score Girl - S02E04.mkv.vcdiff (96.9 KiB)
        • High Score Girl - S02E05.mkv.vcdiff (99.5 KiB)
        • High Score Girl - S02E06.mkv.vcdiff (98.5 KiB)
        • High Score Girl - S02E07.mkv.vcdiff (97.9 KiB)
        • High Score Girl - S02E08.mkv.vcdiff (98.6 KiB)
        • High Score Girl - S02E09.mkv.vcdiff (95.5 KiB)
      • 1.Readme.txt (1.1 KiB)
      • 2.Changelog.txt (0 Bytes)
      • 3.Apply Patch-Linux.sh (2.3 KiB)
      • 3.Apply Patch-Mac.command (2.3 KiB)
      • 3.Apply Patch-Windows.bat (2.5 KiB)
      • xdelta-3.1.0-x86_64.exe (609.8 KiB)
      • xdelta3 (838.8 KiB)
      • xdelta3_mac (144.7 KiB)
    • High Score Girl - S02E01.mkv (311.7 MiB)
    • High Score Girl - S02E02.mkv (385.2 MiB)
    • High Score Girl - S02E03.mkv (332.7 MiB)
    • High Score Girl - S02E04.mkv (276.7 MiB)
    • High Score Girl - S02E05.mkv (361.3 MiB)
    • High Score Girl - S02E06.mkv (283.4 MiB)
    • High Score Girl - S02E07.mkv (360.9 MiB)
    • High Score Girl - S02E08.mkv (346.8 MiB)
    • High Score Girl - S02E09.mkv (302.5 MiB)
Thanks! Season 1 is coming as well right?

neoborn (uploader)

User
**@geha714** [Season 1] is available here from [Lord_Itachi] https://nyaa.si/view/1253739. Only [Season 1 OVA] and [Season 2] was missing from Nyaa to complete the HEVC versions for High Score Girl =)
THX! Keep up the good work!

neoborn (uploader)

User
![](https://i.imgur.com/NwCDX84.png) **SONIC BOOM**
Will you do kabuki-bu? BD remux just uploaded by TTGA plus the OVA

neoborn (uploader)

User
**@KRandroid** I'll check it out!
Thanks so much, dude. Uploaded on my birthday too!

neoborn (uploader)

User
![](https://i.imgur.com/RLJwB6L.png)
Hah, thanks so much man! That's super cute.
Here are the OVA (S01E13-15) subs with added OP and ED lyrics (internet translations + my translations). No attachments as it’s not really styled, and no it’s not karaoke. https://mega.nz/file/cJUHHYBY#epm7rIyg4OuQuOplm5SQD-hED1kZeW1VjmrGtoK4PgI